<?xml version="1.0" standalone="no"?>
<!DOCTYPE svg PUBLIC "-//W3C//DTD SVG 1.1//EN" "http://www.w3.org/Graphics/SVG/1.1/DTD/svg11.dtd" >
<svg xmlns="http://www.w3.org/2000/svg">
<metadata></metadata>
<defs>
<font id="merriweather_sansitalic" horiz-adv-x="0" >
<font-face units-per-em="2048" ascent="1638" descent="-410" />
<missing-glyph horiz-adv-x="485" />
<glyph unicode="&#xfb01;" horiz-adv-x="1279" d="M142 984l28 156h132l14 94q28 208 135.5 327.5t286.5 119.5q91 0 148 -26l-50 -159q-44 33 -124 32q-79 -1 -130 -69t-64 -168l-21 -151h211l-12 -156h-220l-133 -984h-195l133 984h-139zM819 0l155 1140h195l-155 -1140h-195zM997 1508q2 57 46 100t99 43q56 0 90 -33.5 t32 -81.5q-2 -59 -47 -103.5t-105 -44.5q-49 0 -83 35.5t-32 84.5z" />
<glyph unicode="&#xfb02;" horiz-adv-x="1279" d="M142 984l28 156h132l14 94q28 208 135.5 327.5t286.5 119.5q91 0 148 -26l-50 -159q-44 33 -124 32q-79 -1 -130 -69t-64 -168l-21 -151h211l-12 -156h-220l-133 -984h-195l133 984h-139zM820 4l223 1634h195l-223 -1634h-195z" />
<glyph unicode="&#xfb03;" horiz-adv-x="1974" d="M142 984l28 156h132l14 94q28 208 135.5 327.5t286.5 119.5q91 0 148 -26l-50 -159q-44 33 -124 32q-79 -1 -130 -69t-64 -168l-21 -151h211l-12 -156h-220l-133 -984h-195l133 984h-139zM837 984l28 156h132l14 94q28 208 135.5 327.5t286.5 119.5q91 0 148 -26 l-50 -159q-44 33 -124 32q-79 -1 -130 -69t-64 -168l-21 -151h211l-12 -156h-220l-133 -984h-195l133 984h-139zM1514 0l155 1140h195l-155 -1140h-195zM1692 1508q2 57 46 100t99 43q56 0 90 -33.5t32 -81.5q-2 -59 -47 -103.5t-105 -44.5q-49 0 -83 35.5t-32 84.5z" />
<glyph unicode="&#xfb04;" horiz-adv-x="1974" d="M142 984l28 156h132l14 94q28 208 135.5 327.5t286.5 119.5q91 0 148 -26l-50 -159q-44 33 -124 32q-79 -1 -130 -69t-64 -168l-21 -151h211l-12 -156h-220l-133 -984h-195l133 984h-139zM837 984l28 156h132l14 94q28 208 135.5 327.5t286.5 119.5q91 0 148 -26 l-50 -159q-44 33 -124 32q-79 -1 -130 -69t-64 -168l-21 -151h211l-12 -156h-220l-133 -984h-195l133 984h-139zM1515 4l223 1634h195l-223 -1634h-195z" />
<glyph horiz-adv-x="2048" />
<glyph horiz-adv-x="2048" />
<glyph unicode="&#xd;" horiz-adv-x="2048" />
<glyph />
<glyph />
<glyph />
<glyph />
<glyph />
<glyph />
<glyph />
<glyph />
<glyph unicode="&#x9;" />
<glyph unicode="&#xa;" />
<glyph />
<glyph />
<glyph />
<glyph />
<glyph />
<glyph />
<glyph />
<glyph />
<glyph />
<glyph />
<glyph />
<glyph />
<glyph unicode=" "  horiz-adv-x="485" />
<glyph unicode="&#x09;" horiz-adv-x="485" />
<glyph unicode="&#xa0;" horiz-adv-x="485" />
<glyph unicode="!" horiz-adv-x="686" d="M131 103q8 62 60.5 104.5t116.5 42.5q67 0 96.5 -35t22.5 -90q-9 -66 -59.5 -106.5t-117.5 -40.5q-55 0 -90.5 34.5t-28.5 90.5zM246 488l156 1290h225l-223 -1290h-158z" />
<glyph unicode="&#x22;" horiz-adv-x="1003" d="M224 966l77 721h227l-164 -721h-140zM703 966l77 721h227l-164 -721h-140z" />
<glyph unicode="#" horiz-adv-x="1405" d="M111 365l8 128h226l64 405h-220l8 127h232l53 332h165l-51 -332h311l56 332h165l-54 -332h232l-8 -127h-244l-65 -405h227l-8 -128h-239l-57 -365h-160l51 365h-312l-62 -365h-162l58 365h-214zM511 493h312l64 405h-311z" />
<glyph unicode="$" horiz-adv-x="1204" d="M129 68l55 160q30 -33 126.5 -64.5t186.5 -31.5q62 0 117 13.5t101 41t73 75.5t27 111q0 87 -48.5 160.5t-168.5 152.5q-53 35 -92 64.5t-83 73t-72 87.5t-47.5 102.5t-20.5 122.5q-4 171 103.5 278t286.5 127l30 188h181l-31 -190q149 -16 238 -79l-63 -151 q-43 44 -120 64.5t-147 20.5q-39 0 -74.5 -5t-73 -18.5t-65 -35.5t-46.5 -60t-21 -87q-3 -60 8.5 -104.5t43 -85t72 -73.5t110.5 -81q53 -36 88.5 -63t80 -69t71 -82t46 -95t20.5 -114q3 -189 -112.5 -301.5t-310.5 -135.5l-35 -214h-180l33 211q-94 9 -175.5 35t-111.5 52z " />
<glyph unicode="%" horiz-adv-x="1911" d="M201 1055q0 106 52.5 203.5t149 159.5t211.5 62q142 0 209.5 -79t67.5 -216q0 -111 -49.5 -210.5t-145.5 -164.5t-217 -65q-133 0 -205.5 86.5t-72.5 223.5zM362 1057q0 -86 38.5 -137.5t107.5 -51.5q53 0 95.5 32t67 80.5t37.5 99.5t13 97q0 84 -35.5 132.5t-99.5 48.5 q-71 0 -124 -52t-76.5 -118.5t-23.5 -130.5zM396 0l947 1530h159l-947 -1530h-159zM1037 374q0 106 52.5 203.5t149 159.5t211.5 62q142 0 209.5 -79t67.5 -216q0 -111 -49.5 -210.5t-145.5 -164.5t-217 -65q-133 0 -205.5 86.5t-72.5 223.5zM1198 376q0 -86 38.5 -137.5 t107.5 -51.5q53 0 95.5 32t67 80.5t37.5 99.5t13 97q0 84 -35.5 132.5t-99.5 48.5q-71 0 -124 -52t-76.5 -118.5t-23.5 -130.5z" />
<glyph unicode="&#x26;" horiz-adv-x="1534" d="M94 368q0 57 18 108.5t47 91.5t73.5 79.5t89 68.5t102.5 62q-89 195 -89 350q0 181 117 299.5t297 118.5q84 0 153.5 -29t112.5 -75t66.5 -99.5t23.5 -105.5q0 -61 -15.5 -114t-53.5 -100t-69 -79.5t-96 -74t-98 -61t-109 -60.5q-13 -7 -20 -11q175 -304 364 -478 q101 109 101 283q0 72 -22 140q-69 -6 -100 -21l10 134q35 35 155 35l287 -1l-9 -145h-152q12 -45 12 -98q0 -267 -153 -425q96 -52 243 -47h26l-21 -120q-65 -14 -149 -14q-60 0 -129 19t-122 53q-146 -69 -344 -69q-85 0 -162.5 12.5t-148.5 41.5t-123 72.5t-82.5 110 t-30.5 148.5zM298 372q0 -68 31.5 -118.5t85 -78t113.5 -40t129 -12.5q113 0 205 37q-86 82 -158 173.5t-107 146t-103 169.5q-94 -61 -145 -127t-51 -150zM515 1134q0 -148 61 -274q53 28 88.5 49t79.5 49.5t72 55t53.5 58.5t37.5 68t12 76q0 89 -46.5 143t-130.5 54 q-103 0 -165 -82.5t-62 -196.5z" />
<glyph unicode="'" horiz-adv-x="524" d="M224 966l77 721h227l-164 -721h-140z" />
<glyph unicode="(" horiz-adv-x="854" d="M203 505q0 103 15 219q22 163 84 321t135.5 271.5t155.5 208.5t140.5 146t93.5 70l87 -59q-29 -19 -73.5 -64t-106 -128.5t-118 -184t-108 -242t-77.5 -290.5q-20 -151 -20 -261q0 -125 20 -242.5t49.5 -201t66.5 -154t67 -109.5t54 -60l-108 -64h-17q-22 15 -51 43.5 t-69.5 77.5t-77.5 118.5t-70 153.5t-52.5 196.5t-19.5 234.5z" />
<glyph unicode=")" horiz-adv-x="854" d="M-39 -254q29 19 73.5 64t106 128.5t118 184t108 242t77.5 290.5q20 151 20 261q0 125 -20 242.5t-49.5 201t-66.5 154t-67 109.5t-54 60l108 64h17q22 -15 51 -43.5t69.5 -77.5t77.5 -118.5t70 -153.5t52.5 -196.5t19.5 -234.5q0 -103 -15 -219q-22 -163 -84 -321 t-135.5 -271.5t-155.5 -208.5t-140.5 -146t-93.5 -70z" />
<glyph unicode="*" horiz-adv-x="1366" d="M231 982l279 120l142 48l-132 47l-255 121l115 166l218 -170l100 -95l-13 142l2 292h192l-59 -292l-43 -142l120 95l257 171l77 -167l-279 -121l-142 -48l132 -47l255 -120l-115 -166l-219 170l-101 98l16 -145l1 -292l-197 1l59 291l42 145l-118 -98l-257 -171z" />
<glyph unicode="+" horiz-adv-x="1366" d="M241 693l18 158h226l138 -11l13 165l27 230h178l-26 -230l-29 -164l115 10h255l-18 -158h-255l-112 7q-1 -31 -5 -88t-5 -76l-28 -241h-179l27 241l26 164l-141 -7h-225z" />
<glyph unicode="," horiz-adv-x="526" d="M-12 -412l3 21q77 38 125.5 114.5t48.5 168.5q0 68 -26.5 123t-69.5 68l7 54l106 128q55 -21 94 -57.5t59 -80t29 -85t9 -83.5q0 -163 -86 -286t-226 -174z" />
<glyph unicode="-" horiz-adv-x="1266" d="M218 693l18 158h837l-18 -158h-837z" />
<glyph unicode="." horiz-adv-x="526" d="M89 90q0 65 44 112.5t113 47.5q60 0 89.5 -32t29.5 -80q0 -74 -42.5 -117t-114.5 -43q-50 0 -84.5 31.5t-34.5 80.5z" />
<glyph unicode="/" horiz-adv-x="854" d="M-93 -362l861 1959h174l-863 -1959h-172z" />
<glyph unicode="0" horiz-adv-x="1278" d="M103 450q0 148 51 280t136 225t201 147t243 54q112 0 196.5 -35t135 -99t75 -146.5t24.5 -184.5q0 -187 -80.5 -349t-225.5 -260t-320 -98q-110 0 -196 38.5t-137 104.5t-77 148t-26 175zM310 466q0 -95 27.5 -171t88 -123.5t145.5 -47.5q97 0 173.5 49t122 129.5 t68.5 174.5t23 194q0 342 -241 346q-90 2 -162.5 -34.5t-117 -94.5t-74.5 -133.5t-41.5 -147t-11.5 -141.5z" />
<glyph unicode="1" horiz-adv-x="930" d="M176 960q96 21 208.5 79t207.5 123l84 -20l-160 -1142h-201l122 892q-117 -38 -239 -59z" />
<glyph unicode="2" horiz-adv-x="1249" d="M62 130q151 74 284 157.5t241.5 172t171.5 179t63 166.5q0 100 -51 148t-156 48q-155 0 -337 -151l-73 114q74 77 198 137.5t268 60.5q94 0 167 -27.5t117 -75t66 -106.5t22 -127q0 -83 -39.5 -164.5t-103 -150.5t-157.5 -139t-188 -125t-209 -113l719 39l-27 -173h-943z " />
<glyph unicode="3" horiz-adv-x="1104" d="M43 -315l16 151q82 -10 130 -10q98 0 188 22t161.5 63t114.5 105.5t43 142.5q0 223 -278 226l-142 -34l17 171q425 87 425 320q0 62 -48 98t-126 36q-91 0 -165.5 -33t-156.5 -93l-62 148q62 60 185.5 112t268.5 52q66 0 123.5 -17t103.5 -50t73 -88t27 -126 q0 -128 -109.5 -238t-258.5 -161q166 0 260 -89t94 -217q0 -111 -64 -207.5t-167 -160t-232 -99.5t-261 -36q-69 0 -160 12z" />
<glyph unicode="4" horiz-adv-x="1264" d="M20 94q333 504 702 1162h47l142 -89l-596 -937l-79 -99l455 17l58 466l193 35l-63 -490l251 15l-21 -174h-250l-47 -375h-189l49 375h-616z" />
<glyph unicode="5" horiz-adv-x="1116" d="M45 -329l23 140q43 -7 79 -7q115 0 217 22.5t183.5 66.5t129.5 115.5t48 161.5q0 127 -61 191.5t-177 64.5q-56 0 -130.5 -14.5t-131.5 -38.5l-73 75l161 698h547l22 16h168l-38 -185h-546l-116 -426q106 29 228 29q195 0 286.5 -99.5t91.5 -272.5q0 -159 -103.5 -286.5 t-281.5 -197.5t-396 -70q-81 0 -130 17z" />
<glyph unicode="6" horiz-adv-x="1263" d="M145 493q0 252 111.5 475t305.5 379t440 224l44 -115q-223 -81 -388.5 -238.5t-237.5 -348.5q134 120 341 120q92 0 161.5 -32t109 -87.5t59 -122t19.5 -142.5q0 -89 -22.5 -177t-69 -168t-111 -141.5t-155 -98t-194.5 -36.5q-100 0 -180 41t-130 111.5t-76.5 161.5 t-26.5 195zM342 474q0 -71 14 -132t44 -111.5t82 -79.5t122 -29q79 0 141 45t96.5 115.5t52 146t17.5 147.5q0 132 -55 196t-143 64q-208 0 -344 -149q-27 -121 -27 -213z" />
<glyph unicode="7" horiz-adv-x="1096" d="M102 984l34 162h892l32 -43l-603 -1423l-178 66l555 1242z" />
<glyph unicode="8" horiz-adv-x="1270" d="M123 352q0 152 105.5 277.5t261.5 191.5q-93 75 -143 154.5t-50 185.5q0 191 130.5 299.5t336.5 108.5q166 0 275 -90t109 -239q0 -146 -101.5 -269.5t-235.5 -167.5q126 -88 199.5 -184t73.5 -212q0 -129 -71 -226.5t-190 -147t-266 -49.5q-79 0 -155 23.5t-139 67.5 t-101.5 116t-38.5 161zM335 377q0 -114 70.5 -185.5t186.5 -71.5q119 0 197.5 70.5t78.5 178.5q0 107 -69 197.5t-206 181.5q-110 -54 -182.5 -153.5t-75.5 -217.5zM498 1197q0 -96 54 -170t157 -148q107 48 174.5 140t67.5 206q0 101 -60.5 158t-148.5 57 q-105 0 -174.5 -70.5t-69.5 -172.5z" />
<glyph unicode="9" horiz-adv-x="1263" d="M139 542q0 89 22.5 177t69 168t111 141.5t155 98t194.5 36.5q100 0 180 -41t130 -111.5t76.5 -161.5t26.5 -195q0 -252 -111.5 -476t-305.5 -381t-440 -225l-44 115q222 80 388 239.5t238 351.5q-122 -130 -311 -130q-100 0 -175 33t-118.5 89.5t-64.5 125t-21 146.5z M338 571q0 -137 63 -203.5t165 -66.5q187 0 314 159q27 121 27 213q0 71 -14 132t-44 111.5t-82 79.5t-122 29q-79 0 -141 -45t-96.5 -115.5t-52 -146t-17.5 -147.5z" />
<glyph unicode=":" horiz-adv-x="526" d="M68 90q0 65 44 112.5t113 47.5q60 0 89.5 -32t29.5 -80q0 -74 -42.5 -117t-114.5 -43q-50 0 -84.5 31.5t-34.5 80.5zM161 899q0 65 44 112.5t113 47.5q60 0 89.5 -32t29.5 -80q0 -74 -42.5 -117t-114.5 -43q-50 0 -84.5 31.5t-34.5 80.5z" />
<glyph unicode=";" horiz-adv-x="526" d="M-12 -412l3 21q77 38 125.5 114.5t48.5 168.5q0 68 -26.5 123t-69.5 68l7 54l106 128q55 -21 94 -57.5t59 -80t29 -85t9 -83.5q0 -163 -86 -286t-226 -174zM164 899q0 65 44 112.5t113 47.5q60 0 89.5 -32t29.5 -80q0 -74 -42.5 -117t-114.5 -43q-50 0 -84.5 31.5 t-34.5 80.5z" />
<glyph unicode="&#x3c;" horiz-adv-x="1368" d="M195 686l16 128l1009 510l-24 -194l-776 -389l685 -388l-20 -177z" />
<glyph unicode="=" horiz-adv-x="1063" d="M96 339l18 157h815l-18 -157h-815zM166 848l18 157h815l-18 -157h-815z" />
<glyph unicode="&#x3e;" horiz-adv-x="1368" d="M250 179l24 194l776 389l-685 388l20 177l890 -510l-16 -128z" />
<glyph unicode="?" horiz-adv-x="1020" d="M269 692q0 86 69.5 156.5t219.5 151.5q233 119 254 221q9 37 9 96q0 96 -51 166.5t-125 103t-158 32.5q-115 0 -217 -33l28 140q21 22 82 37.5t121 15.5q107 0 193 -24.5t142.5 -65.5t94.5 -97.5t54.5 -117t16.5 -126.5q0 -96 -30 -172t-78 -124.5t-106 -87.5 t-115.5 -69.5t-105.5 -60.5t-78 -70.5t-30 -90.5q0 -26 9 -58.5t21 -62t14 -39.5l-127 -50l-17 1q-37 32 -63.5 96.5t-26.5 131.5zM334 90q0 65 44 112.5t113 47.5q60 0 89.5 -32t29.5 -80q0 -74 -42.5 -117t-114.5 -43q-50 0 -84.5 31.5t-34.5 80.5z" />
<glyph unicode="@" horiz-adv-x="1968" d="M121 374q0 265 83.5 487t227.5 371t338 231t415 82q317 0 500.5 -177.5t183.5 -478.5q0 -162 -38 -305.5t-100.5 -246t-142.5 -177.5t-165 -112t-166 -37q-19 0 -33.5 6.5t-24 14.5t-16 26t-9.5 32t-5 41.5t-2 43.5v50q0 28 12 146q-71 -167 -166 -265.5t-202 -98.5 q-42 0 -81.5 15.5t-76 49.5t-64 83t-43 121t-13.5 158q2 75 17 150t43 149.5t73.5 139t103 113.5t135.5 77.5t168 28.5q51 0 116.5 -14t103.5 -40l165 30q-29 -114 -62 -315.5t-47 -352.5q-4 -46 -5.5 -79.5t-0.5 -69t1 -38.5q0 -28 14 -28q82 0 166 100t138 258.5t54 315.5 q0 555 -569 555q-158 0 -298 -57t-244 -155.5t-179.5 -227.5t-114 -277t-38.5 -299q0 -148 34.5 -267.5t94 -198.5t142 -132.5t174 -77t195.5 -23.5q86 0 205.5 24t172.5 50l33 -97q-70 -53 -184.5 -84.5t-241.5 -31.5q-168 0 -310.5 55t-246 157.5t-162 257t-58.5 344.5z M712 447q0 -287 130 -287q65 0 156.5 133t161.5 306t85 293q-23 35 -77.5 55t-102.5 20q-66 0 -124 -32t-99 -85t-71 -120.5t-44.5 -140t-14.5 -142.5z" />
<glyph unicode="A" horiz-adv-x="1265" d="M-76 0l746 1530h219l286 -1530h-198l-66 396h-594l-182 -396h-211zM386 547h499l-115 689l-13 116l-56 -122z" />
<glyph unicode="B" horiz-adv-x="1240" d="M110 0l193 1530h101q43 0 138.5 8t149.5 8q101 0 180 -18.5t128.5 -49t82 -74t45.5 -89t14 -97.5v-11q0 -150 -78 -251q-82 -105 -226 -154q126 -16 210 -101t86 -211v-10q0 -126 -47 -222q-49 -98 -141 -156.5t-214 -87t-275 -28.5q-39 0 -129.5 7t-125.5 7h-92z M326 146q49 -19 174 -19q97 0 172 17.5t133.5 56.5t88.5 107q29 63 29 149v11q-2 128 -84.5 191.5t-235.5 63.5q-109 0 -205 -7zM417 864q17 -1 170 -1q156 -1 258 87q99 85 99 236v9q-2 108 -72 160.5t-226 52.5q-101 0 -162 -10z" />
<glyph unicode="C" horiz-adv-x="1141" d="M107 627v26q0 147 31 279q34 144 98 255.5t152.5 192.5t198 123.5t230.5 42.5q61 0 115 -8.5t82 -16.5t74 -24l54 -18l-70 -164q-1 1 -13 7.5t-18 10t-22 10.5t-28.5 11t-33.5 9.5t-41.5 8.5t-48 5.5t-57.5 2.5q-93 0 -171.5 -34t-132 -92.5t-94 -132t-62.5 -157 t-32 -162.5q-9 -72 -9 -140v-14q3 -146 38 -257t111.5 -180t187.5 -69q118 0 217 36.5t142 71.5l30 -166q-19 -15 -47.5 -29t-78.5 -31.5t-128 -28.5t-171 -11q-108 0 -195 37.5t-142.5 99t-93.5 146.5t-54 173.5t-18 186.5z" />
<glyph unicode="D" horiz-adv-x="1377" d="M110 0l193 1530h108q42 0 151.5 8t158.5 8q120 0 215.5 -29.5t162 -83t111 -131.5t65.5 -172.5t23 -207.5v-26q0 -182 -52 -346q-56 -174 -156 -300t-248 -198q-140 -68 -302 -68h-18q-64 2 -113 7q-101 9 -198 9h-101zM328 163q90 -30 202 -29h34q108 3 198.5 50.5 t151.5 123t102.5 175t59.5 206.5q17 97 17 196v21q-4 274 -102.5 384t-328.5 110q-104 0 -180 -19z" />
<glyph unicode="E" horiz-adv-x="1138" d="M110 0l193 1530h767l-7 -157l-581 8l-67 -527l438 7l-12 -166l-443 15l-72 -561l700 16l-14 -165h-902z" />
<glyph unicode="F" horiz-adv-x="1057" d="M110 0l193 1530h790l-14 -157l-597 8l-66 -527l470 8l-12 -168l-476 16l-90 -710h-198z" />
<glyph unicode="G" horiz-adv-x="1340" d="M109 627v25q0 147 33 280q35 145 102 256t158.5 192t205 123.5t237.5 42.5q190 0 361 -56l38 -11l-62 -179q-43 33 -132 59.5t-208 26.5q-95 0 -176 -33t-138.5 -90.5t-101 -130.5t-68.5 -157t-37 -166q-11 -76 -11 -149v-12q1 -78 12 -148t35.5 -137.5t61.5 -116t95 -78 t130 -29.5q160 0 324 73l46 358h-232l20 159h427l-82 -635q-39 -4 -137 -33q-2 -1 -38.5 -11.5t-45.5 -13.5t-44 -12.5t-52 -12.5t-50 -10t-57 -9.5t-55 -5t-60 -2.5q-103 0 -187 37.5t-140.5 99.5t-95.5 146t-56.5 174t-19.5 186z" />
<glyph unicode="H" horiz-adv-x="1410" d="M110 0l193 1530h198l-87 -686h653l87 686h198l-193 -1530h-198l87 694h-653l-87 -694h-198z" />
<glyph unicode="I" horiz-adv-x="580" d="M127 0l193 1530h198l-193 -1530h-198z" />
<glyph unicode="J" horiz-adv-x="582" d="M-170 -227q115 37 197 124.5t104 188.5q39 176 70.5 407.5t70.5 598.5t47 438h198q-55 -509 -113 -947t-81 -508q-31 -99 -78.5 -170.5t-109 -114.5t-125 -67t-145.5 -38z" />
<glyph unicode="K" horiz-adv-x="1245" d="M110 0l193 1530h198l-98 -772l672 772h232l-615 -682q47 -77 93 -156t113.5 -200.5t84.5 -151.5q124 -220 204 -340h-238q-16 23 -184 339q-155 289 -200 368l-196 -218l-61 -489h-198z" />
<glyph unicode="L" horiz-adv-x="978" d="M110 0l193 1530h198l-172 -1365l570 5l-22 -170h-767z" />
<glyph unicode="M" horiz-adv-x="1791" d="M48 0l380 1530h254l161 -1060l15 -169l50 169l427 1060h287l-36 -1530h-201l50 1020l24 383l-136 -335l-437 -1071l-140 -15l-161 1061l-36 359l-63 -369l-238 -1033h-200z" />
<glyph unicode="N" horiz-adv-x="1400" d="M110 0l193 1530h206l440 -1062l63 -207l19 249l123 1020h188l-193 -1530h-193l-455 1075l-53 232l-27 -298l-126 -1009h-185z" />
<glyph unicode="O" horiz-adv-x="1378" d="M108 610v27q0 245 86 449q90 215 253.5 337.5t366.5 122.5q118 0 212 -49t153.5 -135t91.5 -198t34 -243v-22q1 -181 -47 -343q-50 -172 -142.5 -298.5t-226.5 -200t-290 -73.5q-118 0 -212 49t-153.5 135.5t-91.5 198.5t-34 243zM314 648q5 -265 82 -388.5t235 -123.5 q138 0 247.5 104t166.5 274q54 162 54 349v20q-4 263 -81 384.5t-236 121.5q-103 0 -193 -62.5t-150.5 -165.5t-94.5 -237q-31 -123 -30 -253v-23z" />
<glyph unicode="P" horiz-adv-x="1180" d="M110 0l193 1530h116q48 0 143.5 8t151.5 8q220 0 337 -96.5t120 -292.5v-16q0 -279 -166 -448q-171 -173 -448 -173q-124 0 -182 10l-67 -530h-198zM395 690q61 -14 146 -14h22q207 2 305 119.5t102 343.5v7q0 122 -69 186q-71 66 -219 66q-100 0 -201 -21z" />
<glyph unicode="Q" horiz-adv-x="1378" d="M108 610v27q0 245 86 449q90 215 253.5 337.5t366.5 122.5q118 0 212 -49t153.5 -135t91.5 -198t34 -243v-25q0 -219 -67 -406q-72 -199 -207.5 -329.5t-311.5 -164.5q2 -39 15 -69t37 -48t50 -30t64 -17t67.5 -6.5t71.5 -1.5q112 0 193 28v-154q-36 -25 -128.5 -41.5 t-180.5 -16.5q-73 0 -136.5 21.5t-111.5 63t-71 109.5q-16 45 -16 98q0 26 4 53q-113 4 -202.5 55t-146.5 136.5t-87.5 195.5t-32.5 238zM314 648q5 -265 82 -388.5t235 -123.5q138 0 247.5 104t166.5 274q54 162 54 349v20q-4 263 -81 384.5t-236 121.5q-103 0 -193 -62.5 t-150.5 -165.5t-94.5 -237q-30 -123 -30 -253v-23z" />
<glyph unicode="R" horiz-adv-x="1270" d="M108 0l193 1530h102q57 0 153 8t156 8q226 0 346 -92t124 -262v-15q0 -176 -90 -308q-94 -138 -265 -191q36 -37 77 -115.5t62 -144.5q84 -203 125 -292.5t69 -126.5l-227 2q-47 74 -129 305q-22 73 -43.5 128.5t-48 106.5t-57 79t-63.5 31q-131 2 -204 2l-82 -653h-198z M408 812q51 -3 223 -3q171 0 256 104q80 98 80 254v18q-3 101 -73.5 155t-203.5 54q-118 0 -209 -16z" />
<glyph unicode="S" horiz-adv-x="1044" d="M29 75l55 160q30 -33 126.5 -64.5t186.5 -31.5q63 0 117.5 12.5t100.5 38.5t73 73t27 110q0 87 -48.5 160.5t-168.5 152.5q-53 35 -92 65t-83 73.5t-72 87.5t-47.5 102.5t-20.5 122.5v11q1 182 127 288q130 110 338 110q226 0 343 -85l-63 -151q-43 44 -120 64.5 t-147 20.5q-39 0 -74.5 -5t-73 -18.5t-65 -35.5t-46.5 -60t-21 -87q-1 -12 -1 -24q0 -45 10 -81q12 -44 43 -84.5t71.5 -74t110.5 -81.5q53 -36 88.5 -63t80 -69t71 -82t46 -95t20.5 -114v-10q1 -102 -37 -182q-40 -84 -111.5 -137t-167.5 -80.5t-211 -27.5 q-114 0 -220.5 29.5t-144.5 61.5z" />
<glyph unicode="T" horiz-adv-x="1122" d="M129 1373l22 157h1044l-21 -157l-420 11l-175 -1384h-198l175 1384z" />
<glyph unicode="U" horiz-adv-x="1363" d="M146 433q0 35 13 160l118 937h198l-114 -902q-12 -112 -12 -182v-10q3 -144 75.5 -217.5t205.5 -73.5q164 0 259 118t128 381l112 886h193l-114 -903q-23 -175 -72 -299t-126.5 -199.5t-177 -110t-230.5 -34.5q-220 0 -336 116q-120 120 -120 333z" />
<glyph unicode="V" horiz-adv-x="1169" d="M128 1530h198l163 -1101l25 -222l86 222l476 1101h210l-697 -1530h-209z" />
<glyph unicode="W" horiz-adv-x="1773" d="M126 1530h198l140 -1094l32 -216l61 215l343 878l-24 217h190l116 -1094l15 -216l74 215l417 1095h200l-629 -1540h-202l-96 860l-14 172l-55 -172l-330 -860h-204z" />
<glyph unicode="X" horiz-adv-x="1157" d="M-59 0l558 793l-318 737h218l229 -598l389 598h224l-537 -777l347 -753h-228l-248 620l-394 -620h-240z" />
<glyph unicode="Y" horiz-adv-x="1083" d="M83 1530h212l248 -692l32 -76l38 76l412 692h212l-593 -940l-76 -590h-188l76 590z" />
<glyph unicode="Z" horiz-adv-x="1157" d="M15 89l779 1128l134 159l-690 -14l22 168h898l25 -86l-780 -1141l-124 -145l752 12l-28 -170h-961z" />
<glyph unicode="[" horiz-adv-x="854" d="M180 -47q0 57 4 110q12 216 98.5 772.5t98.5 647.5q19 146 66 199t164 53q39 0 104 -11.5t111 -23.5l45 -12l-13 -87h-275l-223 -1656q44 0 138 -1t137 -1q-4 -26 -10 -86q-59 -17 -90 -24.5t-81.5 -15t-101.5 -7.5q-96 0 -134 31t-38 112z" />
<glyph unicode="\" horiz-adv-x="854" d="M26 1597h173l577 -1959h-174z" />
<glyph unicode="]" horiz-adv-x="854" d="M45 -132l13 87h275l223 1656q-44 0 -138 1t-137 1q4 26 10 86q59 17 90 24.5t81.5 15t101.5 7.5q96 0 134 -31t38 -112q0 -57 -4 -110q-12 -216 -98.5 -772.5t-98.5 -647.5q-19 -146 -66 -199t-164 -53q-39 0 -104 11.5t-111 23.5z" />
<glyph unicode="^" horiz-adv-x="1364" d="M176 510l511 1020h197l257 -1020h-171l-202 828l-417 -828h-175z" />
<glyph unicode="_" horiz-adv-x="1335" d="M-111 -338l20 151h1378l-20 -151h-1378z" />
<glyph unicode="`" horiz-adv-x="541" d="M49 1576l153 137l288 -402l-85 -70q-65 27 -187.5 140.5t-168.5 194.5z" />
<glyph unicode="a" horiz-adv-x="1145" d="M81 416q0 80 16.5 163.5t48.5 167t85.5 157t121.5 130t162.5 89.5t203.5 33q96 0 226 -34l113 34l-156 -1156h-172l15 190q-64 -88 -155 -147t-199 -59q-154 0 -232 115t-78 317zM283 440q0 -304 143 -304q95 0 182 74.5t149 172.5l86 605q-73 25 -155 25t-151.5 -37 t-115 -96.5t-77.5 -135.5t-46.5 -153t-14.5 -151z" />
<glyph unicode="b" horiz-adv-x="1163" d="M83 -16l219 1654h185l-55 -491l-36 -193q65 85 160 143.5t204 58.5q154 0 232 -115t78 -317q0 -97 -23.5 -197.5t-75.5 -198.5t-125.5 -174t-183.5 -123t-240 -47q-100 0 -226 33zM300 151q70 -24 153 -24q102 0 184.5 55.5t131 143t74 184.5t25.5 190q0 304 -143 304 q-52 0 -105 -23t-97.5 -61.5t-79.5 -78.5t-63 -82z" />
<glyph unicode="c" horiz-adv-x="905" d="M85 434q0 96 23 195.5t71 194t115 168.5t163.5 119t207.5 45q145 0 220 -38l-51 -167q-70 58 -186 58q-64 0 -128.5 -42t-117 -113.5t-85.5 -177t-33 -222.5q0 -173 51.5 -247t156.5 -74q65 0 126 32.5t137 106.5l65 -106q-50 -67 -145 -124.5t-213 -57.5 q-183 0 -280 118t-97 332z" />
<glyph unicode="d" horiz-adv-x="1161" d="M79 416q0 97 23.5 197.5t75.5 198.5t125.5 174t183.5 123t240 47q63 0 143 -15l68 497h195l-221 -1638h-174l16 194q-66 -89 -161 -149.5t-204 -60.5q-154 0 -232 115t-78 317zM281 440q0 -304 143 -304q97 0 189 77.5t155 175.5l82 599q-73 25 -154 25 q-102 0 -184.5 -55.5t-131 -143t-74 -184.5t-25.5 -190z" />
<glyph unicode="e" horiz-adv-x="1035" d="M86 434q5 200 80 364t211 261t307 97q138 0 209.5 -69.5t71.5 -180.5q0 -69 -25.5 -130.5t-67.5 -108t-99.5 -85.5t-119 -66t-127.5 -47t-124 -30t-110 -14q-1 -15 -1 -29q-1 -35 5 -68q8 -46 29 -91t66.5 -72t110.5 -27q163 0 332 159l55 -111q-53 -73 -166 -137.5 t-244 -64.5q-102 0 -181 38t-124.5 102t-67.5 143q-20 72 -20 152v15zM297 564q64 3 142.5 27t153.5 63.5t125.5 102t50.5 132.5q0 119 -128 119q-73 0 -136.5 -44t-105 -112.5t-68 -143t-34.5 -144.5z" />
<glyph unicode="f" horiz-adv-x="695" d="M142 984l28 156h132l14 94q28 208 135.5 327.5t286.5 119.5q91 0 148 -26l-50 -159q-43 32 -119 32h-5q-79 -1 -130 -69t-64 -168l-21 -151h211l-12 -156h-220l-133 -984h-195l133 984h-139z" />
<glyph unicode="g" horiz-adv-x="1157" d="M79 416q0 97 23.5 197.5t75.5 198.5t125.5 174t183.5 123t240 47q96 0 226 -34l117 34l-170 -1249q-17 -113 -71.5 -196.5t-129.5 -128.5t-152 -65.5t-157 -20.5q-66 0 -152.5 11t-116.5 24l50 165q112 -52 257 -52q122 0 186 65.5t89 194.5l49 287 q-66 -88 -160.5 -147.5t-202.5 -59.5q-154 0 -232 115t-78 317zM281 440q0 -304 143 -304q50 0 101.5 23t95.5 61t79 78t63 83l86 607q-73 25 -153 25q-102 0 -184.5 -55.5t-131 -143t-74 -184.5t-25.5 -190z" />
<glyph unicode="h" horiz-adv-x="1198" d="M88 0l208 1638h195l-52 -479l-40 -250q91 109 210.5 178t237.5 69q113 0 167.5 -68.5t54.5 -221.5q0 -74 -40 -351q-13 -92 -41.5 -280.5t-35.5 -234.5h-196q8 57 75 514q39 264 39 340q0 74 -25 97.5t-80 23.5q-82 0 -192.5 -76t-191.5 -181l-98 -718h-195z" />
<glyph unicode="i" horiz-adv-x="584" d="M124 0l155 1140h195l-155 -1140h-195zM302 1512q2 57 46 100t99 43q56 1 90 -33q32 -32 32 -77v-5q-2 -59 -47 -103.5t-105 -44.5q-49 0 -83 36q-32 34 -32 79v5z" />
<glyph unicode="j" horiz-adv-x="579" d="M-230 -475l52 111q17 -14 54 -14q51 0 91 24.5t66 62.5t45.5 100.5t30.5 120t22 139.5l146 1071h195l-154 -1136q-32 -240 -143 -379t-271 -139q-78 0 -134 39zM293 1512q2 57 46 100t99 43q56 0 90 -33q32 -32 32 -77v-5q-2 -59 -47 -103.5t-105 -44.5q-49 0 -83 36 q-32 33 -32 79v5z" />
<glyph unicode="k" horiz-adv-x="1041" d="M88 0l208 1638h195l-208 -1638h-195zM402 634h1l-1 1q161 90 279 219q127 138 181 286h186q-7 -78 -39 -145t-89 -140q-66 -84 -148.5 -151.5t-151.5 -102.5l364 -597h-227z" />
<glyph unicode="l" horiz-adv-x="584" d="M125 4l223 1634h195l-223 -1634h-195z" />
<glyph unicode="m" horiz-adv-x="1769" d="M83 4l155 1136h185l-20 -214q85 103 192 166.5t214 63.5q97 0 151 -50t67 -160q85 94 188 152t205 58q113 0 167.5 -68.5t54.5 -221.5q0 -74 -40 -351q-13 -93 -42 -286.5t-34 -224.5h-196q12 87 74 510q39 264 39 340q0 74 -25 97.5t-80 23.5q-65 0 -151.5 -56.5 t-160.5 -142.5q-10 -99 -34 -261q-13 -93 -42 -286.5t-34 -224.5h-196q12 87 74 510q39 264 39 340q0 74 -25.5 97.5t-80.5 23.5q-75 0 -176 -74.5t-176 -178.5l-97 -718h-195z" />
<glyph unicode="n" horiz-adv-x="1194" d="M83 4l155 1136h185l-21 -224v-1q91 107 208.5 174t233.5 67q113 0 167.5 -68.5t54.5 -221.5q0 -74 -40 -351q-13 -93 -42 -286.5t-34 -224.5h-196q12 87 74 510q39 264 39 340q0 74 -25 97.5t-80 23.5q-83 0 -195 -77t-193 -184l-96 -710h-195z" />
<glyph unicode="o" horiz-adv-x="1135" d="M89 445v12q1 129 41 252q42 129 116.5 228t183.5 159t231 60q187 0 281.5 -119t98.5 -341v-15q-1 -173 -67 -329q-70 -162 -201.5 -265t-293.5 -103q-188 0 -287 120t-103 341zM292 447q5 -316 217 -316q82 0 147.5 52.5t103.5 136.5t58 181q18 88 18 176v18 q-2 155 -51 234.5t-155 79.5q-82 0 -149 -52.5t-108 -135.5t-62 -181q-19 -89 -19 -176v-17z" />
<glyph unicode="p" horiz-adv-x="1169" d="M15 -513l220 1653h175l-17 -187q65 85 160 144t205 59q154 0 232 -115t78 -317q0 -97 -23.5 -197.5t-75.5 -198.5t-125.5 -174t-183.5 -123t-240 -47q-62 0 -142 15l-68 -512h-195zM298 151q70 -24 153 -24q102 0 184.5 55.5t131 143t74 184.5t25.5 190q0 304 -143 304 q-52 0 -105 -23t-97.5 -61.5t-79.5 -78.5t-63 -82z" />
<glyph unicode="q" horiz-adv-x="1159" d="M79 416q0 97 23.5 197.5t75.5 198.5t125.5 174t183.5 123t240 47q97 0 214 -31l123 37l-220 -1668h-195l68 510l35 187q-66 -88 -160.5 -147.5t-202.5 -59.5q-154 0 -232 115t-78 317zM281 440q0 -304 143 -304q50 0 101.5 23t95.5 61t79 78t63 83l83 608q-70 24 -150 24 q-102 0 -184.5 -55.5t-131 -143t-74 -184.5t-25.5 -190z" />
<glyph unicode="r" horiz-adv-x="786" d="M82 0l156 1140h185l-19 -203q21 35 52 69.5t75 70t102.5 57.5t120.5 22q48 0 61 -13l-44 -208q-28 14 -98 14t-159 -75.5t-145 -200.5l-92 -673h-195z" />
<glyph unicode="s" horiz-adv-x="872" d="M44 43l37 171q126 -83 267 -83q83 0 136.5 32.5t53.5 109.5q0 43 -21.5 81.5t-41.5 58.5t-81 71q-12 11 -18 16q-52 44 -81.5 73t-62.5 72t-47.5 91.5t-14.5 106.5q0 147 109.5 230t270.5 83q86 0 155.5 -12.5t100.5 -26.5l-38 -183q-8 11 -31 26.5t-74.5 32t-111.5 16.5 q-84 0 -138.5 -35t-54.5 -106q0 -38 10 -68t37 -60.5t44 -46t62 -52.5q43 -35 64 -53t57 -55.5t53.5 -68t32 -76t14.5 -93.5q0 -150 -108 -230.5t-286 -80.5q-95 0 -181 18t-113 41z" />
<glyph unicode="t" horiz-adv-x="741" d="M133 984l42 156h105l62 280h165l-36 -280h262l-23 -156h-261l-76 -590q-17 -128 -17 -146q0 -109 56 -109q35 0 105 34.5t108 63.5l25 -108q-38 -48 -136.5 -96.5t-177.5 -48.5q-183 0 -183 179q0 41 12 133l84 688h-116z" />
<glyph unicode="u" horiz-adv-x="1173" d="M102 270q0 63 21 228q36 284 90 642h196q-12 -89 -44.5 -316.5t-44.5 -326.5q-19 -146 -19 -215q0 -76 32 -103.5t103 -27.5q83 0 182 76t173 185l97 728h195l-151 -1140h-182l21 218q-82 -107 -187 -172.5t-220 -65.5q-134 0 -198 68t-64 222z" />
<glyph unicode="v" horiz-adv-x="1007" d="M102 1140h218l67 -781l10 -205l144 188q67 108 98.5 163.5t68 146.5t63.5 202q13 54 27 154q11 77 11 114q0 10 -1 18h186q2 -32 2 -63q0 -37 -3 -72q-19 -214 -127.5 -427t-259.5 -394l-161 -188l-175 -12l-58 375z" />
<glyph unicode="w" horiz-adv-x="1662" d="M108 1140h218l71 -781l10 -205l134 188q90 145 151 280.5t93 294.5l-31 223h214l73 -781l12 -205l131 182q95 153 141 256t74 262q37 207 37 271q0 9 -1 15h191q1 -15 1 -33q0 -36 -4 -83q-18 -219 -124.5 -446.5t-249.5 -399.5l-151 -182l-175 -12l-58 375l-33 232 q-114 -273 -226 -407l-151 -188l-175 -12l-58 375z" />
<glyph unicode="x" horiz-adv-x="953" d="M-54 4l426 586l-254 550h234l143 -411l274 411h212l-422 -572l275 -564h-229l-168 429l-282 -429h-209z" />
<glyph unicode="y" horiz-adv-x="1050" d="M-195 -474l56 162q2 -1 11.5 -5.5t18 -8t21.5 -7.5t30.5 -6.5t37.5 -2.5q104 0 203.5 70t226.5 256h-121l-65 375l-109 781h216l84 -781l40 -303l103 183q200 321 244 767q5 60 7 134h192q2 -30 2 -60q0 -36 -3 -73q-26 -356 -250 -778q-113 -214 -249 -383 q-99 -123 -151 -173q-181 -174 -403 -174q-61 0 -142 27z" />
<glyph unicode="z" horiz-adv-x="965" d="M-28 59l579 756l160 169h-539l22 156h723l48 -52l-597 -782l-144 -150h598l-15 -156h-777z" />
<glyph unicode="{" horiz-adv-x="1024" d="M160 714l18 124q127 31 192 65q60 31 65 63l77 517q23 149 70.5 200.5t164.5 51.5q40 0 105 -11.5t110 -23.5l45 -12q-12 -68 -13 -87h-276l-96 -631q-10 -69 -98 -124l-145 -70q108 -57 142 -92q49 -51 41 -109l-95 -630h275l-12 -88q-58 -17 -90 -24.5t-82.5 -15 t-102.5 -7.5q-95 0 -132 30.5t-36 112.5l90 626q0 33 -52 67q-66 45 -165 68z" />
<glyph unicode="|" horiz-adv-x="854" d="M354 -186v1966h173v-1966h-173z" />
<glyph unicode="}" horiz-adv-x="1024" d="M66 -142q12 68 13 87h276l96 631q10 69 98 124l145 70q-108 57 -142 92q-49 51 -41 109l95 630h-275l12 88q58 17 90 24.5t82.5 15t102.5 7.5q95 0 132 -30.5t36 -112.5l-90 -626q0 -33 52 -67q66 -45 165 -68l-18 -124q-127 -31 -192 -65q-60 -31 -65 -63l-77 -517 q-23 -149 -70.5 -200.5t-164.5 -51.5q-40 0 -105 11.5t-110 23.5z" />
<glyph unicode="~" horiz-adv-x="1137" d="M132 848q26 78 115.5 144t196.5 66q51 0 101.5 -27t84.5 -59t76.5 -59t79.5 -27q123 0 202 117l71 -73q-23 -84 -112.5 -147t-199.5 -63q-51 0 -101.5 27t-84 59t-76 59t-80.5 27q-123 0 -202 -117z" />
<glyph />
<glyph unicode="&#xa1;" horiz-adv-x="686" d="M93 -434l223 1290h158l-156 -1290h-225zM293 1219q9 66 59.5 106.5t117.5 40.5q55 0 90.5 -34.5t28.5 -90.5q-8 -62 -60.5 -104.5t-116.5 -42.5q-67 0 -96.5 35t-22.5 90z" />
<glyph unicode="&#xa2;" horiz-adv-x="1057" d="M137 434q0 85 18.5 174t56.5 175.5t92 158.5t131 125.5t166 74.5l54 216h150l-52 -203q117 -4 184 -37l-51 -167q-70 58 -186 58q-64 0 -128.5 -42t-117 -113.5t-85.5 -177t-33 -222.5q0 -173 51.5 -247t156.5 -74q65 0 126 32.5t137 106.5l65 -106 q-46 -62 -131.5 -116.5t-192.5 -63.5l-37 -201h-150l39 213q-128 33 -195.5 145.5t-67.5 290.5z" />
<glyph unicode="&#xa3;" horiz-adv-x="1368" d="M-8 74q8 53 86 106.5t149 52.5q46 36 73.5 110t37.5 150l42 251h-177l18 131h181l16 91q12 91 39 173t73.5 157.5t107.5 130t147 86.5t187 32q93 0 153 -16.5t106 -65.5l-93 -140q-11 24 -65.5 52.5t-131.5 28.5q-47 0 -92.5 -22t-91 -69.5t-81.5 -136t-56 -208.5 l-17 -93h311l-17 -131h-317l-8 -48q-34 -208 -61 -292t-95 -187q20 -6 105 -37t147 -45t128 -14q151 0 214.5 51t63.5 149q0 41 -26.5 90t-64.5 70l157 119q63 -51 102 -123.5t38 -150.5q0 -31 -3.5 -58.5t-15 -64t-31 -66.5t-54.5 -60t-81.5 -50.5t-116.5 -33.5t-156 -13 q-51 0 -104 6t-90.5 13t-93 23t-79.5 24t-83.5 29.5t-74.5 26.5q-40 -53 -104 -87.5t-125 -34.5q-90 0 -76 94z" />
<glyph unicode="&#xa4;" horiz-adv-x="1540" d="M229 1135l113 114l194 -196q112 75 246 75q142 0 256 -81l190 189l113 -114l-191 -191q72 -110 72 -241q0 -136 -77 -248l194 -194l-114 -113l-194 193q-112 -76 -249 -76q-134 0 -242 72l-194 -194l-114 113l192 192q-82 112 -82 255q0 141 80 252zM490 690 q0 -126 85.5 -215.5t206.5 -89.5t206.5 89.5t85.5 215.5t-85.5 215.5t-206.5 89.5t-206.5 -89.5t-85.5 -215.5z" />
<glyph unicode="&#xa5;" horiz-adv-x="1483" d="M230 376l17 130h410l27 225h-407l17 131h348l-318 668h193l254 -555l41 -111l66 119l368 547h194l-498 -668h357l-17 -131h-422l-27 -225h419l-17 -130h-417l-44 -376h-177l44 376h-411z" />
<glyph unicode="&#xa6;" horiz-adv-x="854" d="M354 -186v894h173v-894h-173zM354 886v894h173v-894h-173z" />
<glyph unicode="&#xa7;" horiz-adv-x="1194" d="M131 -65l55 150q29 -42 125 -79t188 -37q348 0 348 191q0 55 -60.5 108.5t-196.5 109.5q-380 158 -385 435q-2 84 42.5 142.5t134.5 103.5q-134 124 -137 285q-3 146 132.5 237.5t372.5 91.5q224 0 343 -105l-63 -151q-42 54 -132 79.5t-165 25.5q-117 0 -195.5 -45.5 t-84.5 -110.5q-3 -45 7.5 -80t32 -62.5t57 -52.5t79 -48.5t101.5 -52.5q11 -5 17 -8q70 -34 125 -70t107.5 -84t82.5 -109.5t31 -129.5q3 -178 -132 -281q89 -81 92 -180q4 -188 -151.5 -291t-405.5 -103q-114 0 -220.5 39.5t-144.5 81.5zM413 845q-2 -26 1.5 -49t8.5 -41.5 t18.5 -37.5t24.5 -32.5t35 -30.5t39.5 -28t49.5 -29.5t54.5 -29t62.5 -31.5q70 -30 118 -55q62 56 62 150q0 76 -52.5 139t-204.5 134q-76 34 -130 68q-81 -47 -87 -127z" />
<glyph unicode="&#xa8;" horiz-adv-x="809" d="M60 1508q2 57 46 100t99 43q56 0 90 -33.5t32 -81.5q-2 -59 -47 -103.5t-105 -44.5q-49 0 -83 35.5t-32 84.5zM480 1508q2 57 46 100t99 43q56 0 90 -33.5t32 -81.5q-2 -59 -47 -103.5t-105 -44.5q-49 0 -83 35.5t-32 84.5z" />
<glyph unicode="&#xa9;" horiz-adv-x="2129" d="M194 963q0 144 43.5 277.5t123.5 241.5t186.5 189t240 125t276.5 44q179 0 340.5 -69t277.5 -186.5t184.5 -280t68.5 -341.5q0 -180 -68.5 -343t-184.5 -281t-277.5 -187.5t-340.5 -69.5q-120 0 -233 31.5t-208.5 88.5t-175.5 138t-135.5 178t-86.5 211t-31 234zM336 963 q0 -205 93.5 -377t261.5 -273.5t373 -101.5t373 101.5t261.5 273.5t93.5 377t-93.5 376.5t-261.5 273t-373 101.5t-373 -101.5t-261.5 -273t-93.5 -376.5zM621 956q0 106 32.5 195.5t94 156.5t156.5 104.5t213 37.5q140 0 238 -56l-32 -164q-96 63 -225 63 q-134 0 -208.5 -91t-74.5 -231q0 -159 75 -247t198 -88q138 0 247 61l45 -124q-50 -42 -136 -68t-183 -26q-101 0 -185 39.5t-139 106t-85.5 152t-30.5 179.5z" />
<glyph unicode="&#xaa;" horiz-adv-x="854" d="M94 1040q0 128 64 250.5t182 204.5t258 82q88 0 175 -29l100 26l-146 -831h-167l24 127q-108 -127 -251 -127q-117 0 -178 78.5t-61 218.5zM268 1055q0 -96 30.5 -145t104.5 -49q75 0 188 113l78 463q-43 38 -96 38q-69 0 -128.5 -39.5t-97 -101.5t-58.5 -135.5 t-21 -143.5z" />
<glyph unicode="&#xab;" horiz-adv-x="1878" d="M245 530l22 160l692 396l38 -115l-510 -356l414 -351l-70 -112zM921 530l22 160l692 396l38 -115l-510 -356l414 -351l-70 -112z" />
<glyph unicode="&#xac;" horiz-adv-x="1370" d="M211 701l17 152h960l-62 -531h-177l45 379h-783z" />
<glyph unicode="&#xad;" horiz-adv-x="1706" />
<glyph unicode="&#xae;" horiz-adv-x="2129" d="M194 963q0 144 43.5 277.5t123.5 241.5t186.5 189t240 125t276.5 44q179 0 340.5 -69t277.5 -186.5t184.5 -280t68.5 -341.5q0 -180 -68.5 -343t-184.5 -281t-277.5 -187.5t-340.5 -69.5q-120 0 -233 31.5t-208.5 88.5t-175.5 138t-135.5 178t-86.5 211t-31 234zM336 963 q0 -205 93.5 -377t261.5 -273.5t373 -101.5t373 101.5t261.5 273.5t93.5 377t-93.5 376.5t-261.5 273t-373 101.5t-373 -101.5t-261.5 -273t-93.5 -376.5zM738 479v962h77q33 0 121 3.5t137 3.5q180 0 269.5 -77t89.5 -197q0 -242 -193 -300q25 -18 48.5 -49t36.5 -54 t36.5 -69.5t31.5 -62.5q13 -23 103 -160l-204 1q-35 44 -79 138q-4 8 -18 39.5t-19.5 43.5t-19.5 38t-24 39t-25 30t-31.5 26.5t-35.5 14.5q-26 -1 -124 -1v-369h-177zM915 980q40 -4 130 -4q104 0 153.5 40.5t49.5 134.5q0 84 -48.5 126.5t-175.5 38.5q-71 -2 -109 -11 v-325z" />
<glyph unicode="&#xaf;" horiz-adv-x="614" d="M41 1425l4 149h510l-5 -149h-509z" />
<glyph unicode="&#xb0;" horiz-adv-x="899" d="M144 1278q2 138 98 230t240 92q138 0 231 -94t91 -228q-2 -139 -99 -231t-242 -92q-138 0 -229.5 94.5t-89.5 228.5zM284 1278q-2 -84 52.5 -143t133.5 -59q83 0 137.5 57.5t56.5 144.5q2 83 -53 142t-134 59q-83 0 -137 -57t-56 -144z" />
<glyph unicode="&#xb1;" horiz-adv-x="1366" d="M172 30l17 150h869l-17 -150h-869zM241 693l18 158h225l139 -11q2 28 7 83.5t7 81.5l26 230h178l-26 -230l-29 -164l115 10h255l-18 -158h-255l-112 7q-2 -27 -6 -82t-5 -82l-27 -241h-179l27 241l26 164l-141 -7h-225z" />
<glyph unicode="&#xb2;" horiz-adv-x="1163" d="M170 733q49 26 106.5 60t136 84t147.5 105.5t130.5 114t97.5 121t36 115.5q0 161 -194 161q-176 0 -311 -138l-70 94q52 72 161.5 133.5t239.5 63.5q87 1 158.5 -22.5t115.5 -61.5t68 -83.5t24 -91.5q0 -187 -156 -340q-94 -93 -312 -229q-24 -15 -90 -56l542 33l-7 -159 h-778z" />
<glyph unicode="&#xb3;" horiz-adv-x="1071" d="M124 606l17 108q50 -25 119 -38.5t122 -12.5q54 0 106 11t101.5 34.5t80.5 66.5t33 101q4 71 -44.5 114.5t-130.5 45.5l-161 -35l21 145q313 62 313 244q0 59 -38 86.5t-119 25.5q-132 -3 -269 -94l-46 112q179 124 389 124q141 0 224.5 -62.5t80.5 -153.5 q-3 -104 -76 -182.5t-187 -121.5q73 0 126 -23.5t78.5 -62t36 -77t9.5 -77.5q-3 -87 -49 -156t-119.5 -110t-160 -62.5t-177.5 -21.5q-61 0 -144 19t-136 53z" />
<glyph unicode="&#xb4;" horiz-adv-x="559" d="M49 1312l307 401l152 -137q-31 -58 -162.5 -180.5t-213.5 -154.5z" />
<glyph unicode="&#xb5;" horiz-adv-x="1364" d="M121 -372l181 1223q16 116 -22 116q-41 0 -94 -53l-64 115q8 12 26 29t49.5 40.5t80 39.5t101.5 16q64 0 103.5 -51.5t26.5 -150.5q-6 -47 -26.5 -198t-38 -280t-17.5 -128q-11 -102 34 -146t121 -44q70 0 144.5 54.5t125.5 120.5l108 809h194l-116 -902q-5 -37 5.5 -60 t27.5 -23q47 0 119 72l62 -107q-9 -13 -27.5 -31.5t-51.5 -44.5t-79.5 -44t-94.5 -18q-63 0 -105.5 35t-48.5 105q-36 -34 -46.5 -43.5t-45.5 -35.5t-60.5 -35t-70 -18.5t-95.5 -9.5q-39 1 -89.5 22.5t-67.5 53.5l-64 -428h-185z" />
<glyph unicode="&#xb6;" horiz-adv-x="1364" d="M161 1117q-4 213 130.5 333.5t424.5 120.5q88 0 204 -9.5t170 -9.5h259l-11 -103l-167 -33q-25 -212 -89.5 -709.5t-89.5 -706.5h-190l175 1414h-194l-177 -1414h-192l102 774q-163 4 -257.5 93t-97.5 250z" />
<glyph unicode="&#xb7;" horiz-adv-x="686" d="M208 736q0 65 44 112.5t113 47.5q60 0 89.5 -32t29.5 -80q0 -74 -42.5 -117t-114.5 -43q-50 0 -84.5 31.5t-34.5 80.5z" />
<glyph unicode="&#xb8;" horiz-adv-x="479" d="M4 -436l25 151q26 -14 71 -14q72 0 115.5 39t43.5 141q0 131 -4 149l77 4l53 -4q45 -63 45 -195q0 -158 -77.5 -228.5t-200.5 -70.5q-41 0 -86.5 8t-61.5 20z" />
<glyph unicode="&#xb9;" horiz-adv-x="1020" d="M278 1466q100 25 237.5 85.5t178.5 93.5l69 -21l-135 -988h-185l102 759l-261 -52z" />
<glyph unicode="&#xba;" horiz-adv-x="854" d="M98 1105q0 112 40 206.5t104 154t141 92t154 31.5q145 -2 235.5 -106.5t90.5 -268.5q0 -113 -38 -207t-100.5 -153t-140.5 -91t-161 -30q-135 2 -230 105t-95 267zM282 1123q0 -119 41.5 -191.5t108.5 -73.5q72 -1 123 30.5t76 85t35.5 107.5t10.5 115q0 125 -38.5 200.5 t-114.5 74.5q-54 -1 -97 -24.5t-69.5 -60t-44 -84t-24.5 -92t-7 -87.5z" />
<glyph unicode="&#xbb;" horiz-adv-x="1878" d="M218 267l510 356l-414 351l70 112l586 -378l-22 -160l-692 -396zM894 267l510 356l-414 351l70 112l586 -378l-22 -160l-692 -396z" />
<glyph unicode="&#xbc;" horiz-adv-x="2560" d="M308 1466q100 25 237.5 85.5t178.5 93.5l69 -21l-135 -988h-185l102 759l-261 -52zM706 0l681 1530h159l-681 -1530h-159zM1275 261l606 851h48l133 -103l-491 -609l-79 -92l333 14l36 253l202 23l-36 -268l262 11l-20 -175h-264l-46 -343h-203l48 343h-492z" />
<glyph unicode="&#xbd;" horiz-adv-x="2560" d="M308 1466q100 25 237.5 85.5t178.5 93.5l69 -21l-135 -988h-185l102 759l-261 -52zM705 0l681 1530h159l-681 -1530h-159zM1404 18q49 26 106.5 60t136 84t147.5 105.5t130.5 114t97.5 121t36 115.5q0 161 -194 161q-176 0 -311 -138l-70 94q52 72 161.5 133.5 t239.5 63.5q87 1 158.5 -22.5t115.5 -61.5t68 -83.5t24 -91.5q0 -187 -156 -340q-94 -93 -312 -229q-24 -15 -90 -56l542 33l-7 -159h-778z" />
<glyph unicode="&#xbe;" horiz-adv-x="2560" d="M111 606l17 108q50 -25 119 -38.5t122 -12.5q54 0 106 11t101.5 34.5t80.5 66.5t33 101q4 71 -44.5 114.5t-130.5 45.5l-161 -35l21 145q313 62 313 244q0 59 -38 86.5t-119 25.5q-132 -3 -269 -94l-46 112q179 124 389 124q141 0 224.5 -62.5t80.5 -153.5 q-3 -104 -76 -182.5t-187 -121.5q73 0 126 -23.5t78.5 -62t36 -77t9.5 -77.5q-3 -87 -49 -156t-119.5 -110t-160 -62.5t-177.5 -21.5q-61 0 -144 19t-136 53zM705 0l681 1530h159l-681 -1530h-159zM1275 261l606 851h48l133 -103l-491 -609l-79 -92l333 14l36 253l202 23 l-36 -268l262 11l-20 -175h-264l-46 -343h-203l48 343h-492z" />
<glyph unicode="&#xbf;" horiz-adv-x="1028" d="M87 66q0 96 30 172t78 124.5t105.5 87.5t115.5 69.5t106 60.5t78 70.5t30 90.5q0 26 -9 58.5t-21 62t-14 39.5l127 50l17 -1q37 -32 63.5 -96.5t26.5 -131.5q0 -86 -69.5 -156.5t-219.5 -151.5q-233 -119 -254 -221q-9 -37 -9 -96q0 -96 51 -166.5t125 -103t158 -32.5 q115 0 217 33l-28 -140q-21 -22 -82 -37.5t-121 -15.5q-107 0 -193 24.5t-142.5 65.5t-94.5 97.5t-54.5 117t-16.5 126.5zM479 1276q0 74 42.5 117t114.5 43q50 0 84.5 -31.5t34.5 -80.5q0 -65 -44 -112.5t-113 -47.5q-60 0 -89.5 32t-29.5 80z" />
<glyph unicode="&#xc0;" horiz-adv-x="1265" d="M-76 0l746 1530h219l286 -1530h-198l-66 396h-594l-182 -396h-211zM386 547h499l-115 689l-13 116l-56 -122zM491 1872l124 128l276 -342l-73 -65q-76 29 -179.5 114t-147.5 165z" />
<glyph unicode="&#xc1;" horiz-adv-x="1265" d="M-76 0l746 1530h219l286 -1530h-198l-66 396h-594l-182 -396h-211zM386 547h499l-115 689l-13 116l-56 -122zM749 1658l276 342l124 -128q-44 -80 -147.5 -165t-179.5 -114z" />
<glyph unicode="&#xc2;" horiz-adv-x="1265" d="M-76 0l746 1530h219l286 -1530h-198l-66 396h-594l-182 -396h-211zM386 547h499l-115 689l-13 116l-56 -122zM461 1656l327 344h178l190 -344l-94 -68l-211 234l-313 -243z" />
<glyph unicode="&#xc3;" horiz-adv-x="1265" d="M-76 0l746 1530h219l286 -1530h-198l-66 396h-594l-182 -396h-211zM386 547h499l-115 689l-13 116l-56 -122zM430 1801q33 65 116.5 117t160.5 52q42 0 78 -14.5t60 -35t45 -41t45 -35t49 -14.5q21 0 38.5 5.5t34 20t25 23.5t25 32t21.5 29l85 -89q-25 -76 -103.5 -129.5 t-164.5 -53.5q-45 0 -81.5 14t-60 34.5t-45 41t-48 35t-56.5 15.5q-19 0 -35 -4.5t-31.5 -16.5t-23.5 -19.5t-25 -26.5t-22 -24z" />
<glyph unicode="&#xc4;" horiz-adv-x="1265" d="M-76 0l746 1530h219l286 -1530h-198l-66 396h-594l-182 -396h-211zM386 547h499l-115 689l-13 116l-56 -122zM478 1815q2 56 47.5 100t95.5 44q56 0 90 -33.5t32 -82.5q-2 -58 -48 -102.5t-104 -44.5q-47 0 -81 35.5t-32 83.5zM895 1815q0 56 48 100t98 44q56 0 89.5 -34 t31.5 -82q-2 -58 -47.5 -102.5t-104.5 -44.5q-47 0 -81 35t-34 84z" />
<glyph unicode="&#xc5;" horiz-adv-x="1265" d="M-76 0l725 1488q-155 56 -155 237q0 66 31.5 120.5t82 87t111 50t122.5 17.5q127 0 201.5 -70.5t74.5 -194.5q0 -101 -60 -165.5t-159 -89.5l277 -1480h-198l-66 396h-594l-182 -396h-211zM386 547h499l-115 689l-13 116l-56 -122zM633 1719q0 -61 44 -103.5t109 -42.5 q42 0 73.5 7.5t59 26.5t42 55.5t14.5 89.5q0 61 -41.5 100.5t-108.5 39.5q-37 0 -68.5 -8.5t-60.5 -27t-46 -53.5t-17 -84z" />
<glyph unicode="&#xc6;" horiz-adv-x="1763" d="M-128 0l769 1408l-291 22l14 100h1331l-7 -157l-581 8l-67 -527l438 7l-12 -166l-443 15l-72 -561l700 16l-14 -165h-902l52 416h-483l-219 -416h-213zM384 567h422l104 820l-90 6z" />
<glyph unicode="&#xc7;" horiz-adv-x="1141" d="M107 627q-3 161 31 305.5t98 255.5t152.5 192t198 123.5t230.5 42.5q61 0 115 -8.5t82 -16.5t74 -24l54 -18l-70 -164q-1 1 -13 7.5t-18 10t-22 10.5t-28.5 11t-33.5 9.5t-41.5 8.5t-48 5.5t-57.5 2.5q-93 0 -171.5 -34t-132 -92.5t-94 -132t-62.5 -157t-32 -162.5 t-9 -154q3 -146 38 -257t111.5 -180t187.5 -69q118 0 217 36.5t142 71.5l30 -166q-105 -80 -326 -96q23 -64 23 -151q0 -158 -77.5 -228.5t-200.5 -70.5q-41 0 -86.5 8t-61.5 20l25 151q26 -14 71 -14q72 0 115.5 39t43.5 141v30.5v39.5v33q-97 8 -175 49.5t-128.5 103 t-85 143.5t-49 167t-16.5 178z" />
<glyph unicode="&#xc8;" horiz-adv-x="1138" d="M110 0l193 1530h767l-7 -157l-581 8l-67 -527l438 7l-12 -166l-443 15l-72 -561l700 16l-14 -165h-902zM399 1872l124 128l276 -342l-73 -65q-76 29 -179.5 114t-147.5 165z" />
<glyph unicode="&#xc9;" horiz-adv-x="1138" d="M110 0l193 1530h767l-7 -157l-581 8l-67 -527l438 7l-12 -166l-443 15l-72 -561l700 16l-14 -165h-902zM657 1658l276 342l124 -128q-44 -80 -147.5 -165t-179.5 -114z" />
<glyph unicode="&#xca;" horiz-adv-x="1138" d="M110 0l193 1530h767l-7 -157l-581 8l-67 -527l438 7l-12 -166l-443 15l-72 -561l700 16l-14 -165h-902zM369 1656l327 344h178l190 -344l-94 -68l-211 234l-313 -243z" />
<glyph unicode="&#xcb;" horiz-adv-x="1138" d="M110 0l193 1530h767l-7 -157l-581 8l-67 -527l438 7l-12 -166l-443 15l-72 -561l700 16l-14 -165h-902zM386 1815q2 56 47.5 100t95.5 44q56 0 90 -33.5t32 -82.5q-2 -58 -48 -102.5t-104 -44.5q-47 0 -81 35.5t-32 83.5zM803 1815q0 56 48 100t98 44q56 0 89.5 -34 t31.5 -82q-2 -58 -47.5 -102.5t-104.5 -44.5q-47 0 -81 35t-34 84z" />
<glyph unicode="&#xcc;" horiz-adv-x="580" d="M127 0l193 1530h198l-193 -1530h-198zM130 1872l124 128l276 -342l-73 -65q-76 29 -179.5 114t-147.5 165z" />
<glyph unicode="&#xcd;" horiz-adv-x="580" d="M127 0l193 1530h198l-193 -1530h-198zM388 1658l276 342l124 -128q-44 -80 -147.5 -165t-179.5 -114z" />
<glyph unicode="&#xce;" horiz-adv-x="580" d="M100 1656l327 344h178l190 -344l-94 -68l-211 234l-313 -243zM127 0l193 1530h198l-193 -1530h-198z" />
<glyph unicode="&#xcf;" horiz-adv-x="580" d="M117 1815q2 56 47.5 100t95.5 44q56 0 90 -33.5t32 -82.5q-2 -58 -48 -102.5t-104 -44.5q-47 0 -81 35.5t-32 83.5zM127 0l193 1530h198l-193 -1530h-198zM534 1815q0 56 48 100t98 44q56 0 89.5 -34t31.5 -82q-2 -58 -47.5 -102.5t-104.5 -44.5q-47 0 -81 35t-34 84z " />
<glyph unicode="&#xd0;" horiz-adv-x="1377" d="M42 722l16 130h159l86 678h108q42 0 151.5 8t158.5 8q120 0 215.5 -29.5t162 -83t111 -131.5t65.5 -172.5t23 -207.5q4 -197 -51.5 -371.5t-156 -301t-248 -198t-320.5 -67.5q-64 2 -113 7q-72 7 -176 9h-123l91 722h-159zM328 163q103 -34 236 -29q108 3 198.5 50.5 t151.5 123t102.5 175t60 206.5t16.5 217q-4 274 -102.5 384t-328.5 110q-104 0 -180 -19l-67 -529h382l-16 -130h-382z" />
<glyph unicode="&#xd1;" horiz-adv-x="1400" d="M110 0l193 1530h206l440 -1062l63 -207l19 249l123 1020h188l-193 -1530h-193l-455 1075l-53 232l-27 -298l-126 -1009h-185zM491 1801q33 65 116.5 117t160.5 52q42 0 78 -14.5t60 -35t45 -41t45 -35t49 -14.5q21 0 38.5 5.5t34 20t25 23.5t25 32t21.5 29l85 -89 q-25 -76 -103.5 -129.5t-164.5 -53.5q-45 0 -81.5 14t-60 34.5t-45 41t-48 35t-56.5 15.5q-19 0 -35 -4.5t-31.5 -16.5t-23.5 -19.5t-25 -26.5t-22 -24z" />
<glyph unicode="&#xd2;" horiz-adv-x="1378" d="M108 610q-5 261 85.5 476t254 337.5t366.5 122.5q118 0 212 -49t153.5 -135t91.5 -198t34 -243q3 -193 -47.5 -365.5t-142.5 -298.5t-226 -199.5t-290 -73.5q-118 0 -212 49t-153.5 135.5t-91.5 198.5t-34 243zM314 648q5 -265 82 -388.5t235 -123.5q138 0 247.5 104 t166.5 274t54 369q-4 263 -81 384.5t-236 121.5q-103 0 -193 -62.5t-150.5 -165.5t-94 -237t-30.5 -276zM524 1872l124 128l276 -342l-73 -65q-76 29 -179.5 114t-147.5 165z" />
<glyph unicode="&#xd3;" horiz-adv-x="1378" d="M108 610q-5 261 85.5 476t254 337.5t366.5 122.5q118 0 212 -49t153.5 -135t91.5 -198t34 -243q3 -193 -47.5 -365.5t-142.5 -298.5t-226 -199.5t-290 -73.5q-118 0 -212 49t-153.5 135.5t-91.5 198.5t-34 243zM314 648q5 -265 82 -388.5t235 -123.5q138 0 247.5 104 t166.5 274t54 369q-4 263 -81 384.5t-236 121.5q-103 0 -193 -62.5t-150.5 -165.5t-94 -237t-30.5 -276zM782 1658l276 342l124 -128q-44 -80 -147.5 -165t-179.5 -114z" />
<glyph unicode="&#xd4;" horiz-adv-x="1378" d="M108 610q-5 261 85.5 476t254 337.5t366.5 122.5q118 0 212 -49t153.5 -135t91.5 -198t34 -243q3 -193 -47.5 -365.5t-142.5 -298.5t-226 -199.5t-290 -73.5q-118 0 -212 49t-153.5 135.5t-91.5 198.5t-34 243zM314 648q5 -265 82 -388.5t235 -123.5q138 0 247.5 104 t166.5 274t54 369q-4 263 -81 384.5t-236 121.5q-103 0 -193 -62.5t-150.5 -165.5t-94 -237t-30.5 -276zM494 1656l327 344h178l190 -344l-94 -68l-211 234l-313 -243z" />
<glyph unicode="&#xd5;" horiz-adv-x="1378" d="M108 610q-5 261 85.5 476t254 337.5t366.5 122.5q118 0 212 -49t153.5 -135t91.5 -198t34 -243q3 -193 -47.5 -365.5t-142.5 -298.5t-226 -199.5t-290 -73.5q-118 0 -212 49t-153.5 135.5t-91.5 198.5t-34 243zM314 648q5 -265 82 -388.5t235 -123.5q138 0 247.5 104 t166.5 274t54 369q-4 263 -81 384.5t-236 121.5q-103 0 -193 -62.5t-150.5 -165.5t-94 -237t-30.5 -276zM463 1801q33 65 116.5 117t160.5 52q42 0 78 -14.5t60 -35t45 -41t45 -35t49 -14.5q21 0 38.5 5.5t34 20t25 23.5t25 32t21.5 29l85 -89q-25 -76 -103.5 -129.5 t-164.5 -53.5q-45 0 -81.5 14t-60 34.5t-45 41t-48 35t-56.5 15.5q-19 0 -35 -4.5t-31.5 -16.5t-23.5 -19.5t-25 -26.5t-22 -24z" />
<glyph unicode="&#xd6;" horiz-adv-x="1378" d="M108 610q-5 261 85.5 476t254 337.5t366.5 122.5q118 0 212 -49t153.5 -135t91.5 -198t34 -243q3 -193 -47.5 -365.5t-142.5 -298.5t-226 -199.5t-290 -73.5q-118 0 -212 49t-153.5 135.5t-91.5 198.5t-34 243zM314 648q5 -265 82 -388.5t235 -123.5q138 0 247.5 104 t166.5 274t54 369q-4 263 -81 384.5t-236 121.5q-103 0 -193 -62.5t-150.5 -165.5t-94 -237t-30.5 -276zM511 1815q2 56 47.5 100t95.5 44q56 0 90 -33.5t32 -82.5q-2 -58 -48 -102.5t-104 -44.5q-47 0 -81 35.5t-32 83.5zM928 1815q0 56 48 100t98 44q56 0 89.5 -34 t31.5 -82q-2 -58 -47.5 -102.5t-104.5 -44.5q-47 0 -81 35t-34 84z" />
<glyph unicode="&#xd7;" horiz-adv-x="1370" d="M231 438l383 327l-301 327l132 123l281 -350l369 350l102 -123l-383 -327l301 -327l-132 -123l-281 350l-369 -350z" />
<glyph unicode="&#xd8;" horiz-adv-x="1378" d="M57 -83l172 258q-116 168 -121 435q-5 261 85.5 476t254 337.5t366.5 122.5q155 0 270 -86l140 210l89 -49l-155 -233q142 -172 147 -467q3 -193 -47.5 -365.5t-142.5 -298.5t-226 -199.5t-290 -73.5q-181 0 -302 112l-151 -228zM314 648q3 -187 42 -302l622 971 q-72 72 -196 72q-103 0 -193 -62.5t-150.5 -165.5t-94 -237t-30.5 -276zM409 241q75 -105 222 -105q138 0 247.5 104t166.5 274t54 369q-5 223 -59 342z" />
<glyph unicode="&#xd9;" horiz-adv-x="1363" d="M146 428q-1 31 13 165l118 937h198l-114 -902q-13 -121 -12 -192q3 -144 75.5 -217.5t205.5 -73.5q164 0 259 118t128 381l112 886h193l-114 -903q-23 -175 -72 -299t-126.5 -199.5t-177 -110t-230.5 -34.5q-220 0 -336 116.5t-120 327.5zM511 1872l124 128l276 -342 l-73 -65q-76 29 -179.5 114t-147.5 165z" />
<glyph unicode="&#xda;" horiz-adv-x="1363" d="M146 428q-1 31 13 165l118 937h198l-114 -902q-13 -121 -12 -192q3 -144 75.5 -217.5t205.5 -73.5q164 0 259 118t128 381l112 886h193l-114 -903q-23 -175 -72 -299t-126.5 -199.5t-177 -110t-230.5 -34.5q-220 0 -336 116.5t-120 327.5zM769 1658l276 342l124 -128 q-44 -80 -147.5 -165t-179.5 -114z" />
<glyph unicode="&#xdb;" horiz-adv-x="1363" d="M146 428q-1 31 13 165l118 937h198l-114 -902q-13 -121 -12 -192q3 -144 75.5 -217.5t205.5 -73.5q164 0 259 118t128 381l112 886h193l-114 -903q-23 -175 -72 -299t-126.5 -199.5t-177 -110t-230.5 -34.5q-220 0 -336 116.5t-120 327.5zM481 1656l327 344h178l190 -344 l-94 -68l-211 234l-313 -243z" />
<glyph unicode="&#xdc;" horiz-adv-x="1363" d="M146 428q-1 31 13 165l118 937h198l-114 -902q-13 -121 -12 -192q3 -144 75.5 -217.5t205.5 -73.5q164 0 259 118t128 381l112 886h193l-114 -903q-23 -175 -72 -299t-126.5 -199.5t-177 -110t-230.5 -34.5q-220 0 -336 116.5t-120 327.5zM498 1815q2 56 47.5 100 t95.5 44q56 0 90 -33.5t32 -82.5q-2 -58 -48 -102.5t-104 -44.5q-47 0 -81 35.5t-32 83.5zM915 1815q0 56 48 100t98 44q56 0 89.5 -34t31.5 -82q-2 -58 -47.5 -102.5t-104.5 -44.5q-47 0 -81 35t-34 84z" />
<glyph unicode="&#xdd;" horiz-adv-x="1083" d="M83 1530h212l248 -692l32 -76l38 76l412 692h212l-593 -940l-76 -590h-188l76 590zM639 1658l276 342l124 -128q-44 -80 -147.5 -165t-179.5 -114z" />
<glyph unicode="&#xde;" horiz-adv-x="1210" d="M110 0l193 1530h198l-32 -247q19 1 63.5 5.5t79.5 6.5t70 2q220 0 337 -97t120 -293q5 -291 -166 -464t-448 -173q-124 0 -182 10l-35 -280h-198zM363 440q69 -16 168 -14q207 2 305 119.5t102 343.5q2 128 -69 193.5t-219 65.5q-98 0 -200 -21z" />
<glyph unicode="&#xdf;" horiz-adv-x="1180" d="M77 4l117 927q16 125 45.5 225.5t65.5 168t84 117.5t93 77.5t101 44t99.5 21t96.5 4.5q141 0 228.5 -75.5t87.5 -216.5q0 -76 -26 -140t-62.5 -106t-73.5 -78.5t-63 -75.5t-26 -78q0 -18 12 -42t26 -43t40 -52.5t39 -51.5q124 -174 124 -318q0 -146 -107 -237t-299 -91 q-63 0 -140 15t-111 32l26 187q32 -30 90.5 -56.5t117.5 -25.5q120 1 168.5 37t48.5 129q0 96 -89 225q-54 64 -94 137.5t-40 132.5q0 65 25.5 112t78.5 104q66 70 99.5 134.5t33.5 143.5q0 68 -44 112.5t-127 44.5q-51 0 -91 -14.5t-80 -52.5t-70 -102t-56.5 -166.5 t-44.5 -241.5l-109 -867h-194z" />
<glyph unicode="&#xe0;" horiz-adv-x="1145" d="M81 416q0 80 16.5 163.5t48.5 167t85.5 157t121.5 130t162.5 89.5t203.5 33q96 0 226 -34l113 34l-156 -1156h-172l15 190q-64 -88 -155 -147t-199 -59q-154 0 -232 115t-78 317zM283 440q0 -304 143 -304q95 0 182 74.5t149 172.5l86 605q-73 25 -155 25t-151.5 -37 t-115 -96.5t-77.5 -135.5t-46.5 -153t-14.5 -151zM319 1576l153 137l288 -402l-85 -70q-65 27 -187.5 140.5t-168.5 194.5z" />
<glyph unicode="&#xe1;" horiz-adv-x="1145" d="M81 416q0 80 16.5 163.5t48.5 167t85.5 157t121.5 130t162.5 89.5t203.5 33q96 0 226 -34l113 34l-156 -1156h-172l15 190q-64 -88 -155 -147t-199 -59q-154 0 -232 115t-78 317zM283 440q0 -304 143 -304q95 0 182 74.5t149 172.5l86 605q-73 25 -155 25t-151.5 -37 t-115 -96.5t-77.5 -135.5t-46.5 -153t-14.5 -151zM597 1312l307 401l152 -137q-31 -58 -162.5 -180.5t-213.5 -154.5z" />
<glyph unicode="&#xe2;" horiz-adv-x="1145" d="M81 416q0 80 16.5 163.5t48.5 167t85.5 157t121.5 130t162.5 89.5t203.5 33q96 0 226 -34l113 34l-156 -1156h-172l15 190q-64 -88 -155 -147t-199 -59q-154 0 -232 115t-78 317zM283 440q0 -304 143 -304q95 0 182 74.5t149 172.5l86 605q-73 25 -155 25t-151.5 -37 t-115 -96.5t-77.5 -135.5t-46.5 -153t-14.5 -151zM342 1276l327 374h178l190 -374l-94 -68l-211 264l-313 -273z" />
<glyph unicode="&#xe3;" horiz-adv-x="1145" d="M81 416q0 80 16.5 163.5t48.5 167t85.5 157t121.5 130t162.5 89.5t203.5 33q96 0 226 -34l113 34l-156 -1156h-172l15 190q-64 -88 -155 -147t-199 -59q-154 0 -232 115t-78 317zM283 440q0 -304 143 -304q95 0 182 74.5t149 172.5l86 605q-73 25 -155 25t-151.5 -37 t-115 -96.5t-77.5 -135.5t-46.5 -153t-14.5 -151zM323 1481q33 65 116.5 117t160.5 52q42 0 78 -14.5t60 -35t45 -41t45 -35t49 -14.5q21 0 38.5 5.5t34 20t25 23.5t25 32t21.5 29l85 -89q-25 -76 -103.5 -129.5t-164.5 -53.5q-45 0 -81.5 14t-60 34.5t-45 41t-48 35 t-56.5 15.5q-19 0 -35 -4.5t-31.5 -16.5t-23.5 -19.5t-25 -26.5t-22 -24z" />
<glyph unicode="&#xe4;" horiz-adv-x="1145" d="M81 416q0 80 16.5 163.5t48.5 167t85.5 157t121.5 130t162.5 89.5t203.5 33q96 0 226 -34l113 34l-156 -1156h-172l15 190q-64 -88 -155 -147t-199 -59q-154 0 -232 115t-78 317zM283 440q0 -304 143 -304q95 0 182 74.5t149 172.5l86 605q-73 25 -155 25t-151.5 -37 t-115 -96.5t-77.5 -135.5t-46.5 -153t-14.5 -151zM387 1508q2 57 46 100t99 43q56 0 90 -33.5t32 -81.5q-2 -59 -47 -103.5t-105 -44.5q-49 0 -83 35.5t-32 84.5zM807 1508q2 57 46 100t99 43q56 0 90 -33.5t32 -81.5q-2 -59 -47 -103.5t-105 -44.5q-49 0 -83 35.5t-32 84.5 z" />
<glyph unicode="&#xe5;" horiz-adv-x="1145" d="M81 416q0 80 16.5 163.5t48.5 167t85.5 157t121.5 130t162.5 89.5t203.5 33q96 0 226 -34l113 34l-156 -1156h-172l15 190q-64 -88 -155 -147t-199 -59q-154 0 -232 115t-78 317zM283 440q0 -304 143 -304q95 0 182 74.5t149 172.5l86 605q-73 25 -155 25t-151.5 -37 t-115 -96.5t-77.5 -135.5t-46.5 -153t-14.5 -151zM442 1511q0 66 31.5 120.5t82 87t111 50t122.5 17.5q127 0 201.5 -70.5t74.5 -194.5q0 -87 -47.5 -149.5t-122 -90.5t-166.5 -28q-137 0 -212 67.5t-75 190.5zM581 1505q0 -61 44 -103.5t109 -42.5q42 0 73.5 7.5t59 26.5 t42 55.5t14.5 89.5q0 61 -41.5 100.5t-108.5 39.5q-37 0 -68.5 -8.5t-60.5 -27t-46 -53.5t-17 -84z" />
<glyph unicode="&#xe6;" horiz-adv-x="1633" d="M81 416q0 80 16.5 163.5t48.5 167t85.5 157t121.5 130t162.5 89.5t203.5 33q53 0 83.5 -2.5t87 -20.5t116.5 -54q126 77 276 77q138 0 209.5 -69.5t71.5 -180.5q0 -69 -25.5 -130.5t-67.5 -108t-99.5 -85.5t-119 -66t-127.5 -47t-124 -30t-110 -14q-3 -51 4.5 -97 t28.5 -91t66.5 -72t110.5 -27q163 0 332 159l55 -111q-53 -73 -166 -137.5t-244 -64.5q-148 0 -241 74t-130 197q-139 -271 -335 -271q-290 0 -290 432zM283 440q0 -159 33 -231.5t100 -72.5q131 0 268 276v22q4 157 52 293.5t134 235.5q-94 50 -182 50q-82 0 -151.5 -37 t-115 -96.5t-77.5 -135.5t-46.5 -153t-14.5 -151zM895 564q64 3 142.5 27t153.5 63.5t125.5 102t50.5 132.5q0 119 -128 119q-73 0 -136.5 -44t-105 -112.5t-68 -143t-34.5 -144.5z" />
<glyph unicode="&#xe7;" horiz-adv-x="905" d="M85 434q0 96 23 195.5t71 194t115 168.5t163.5 119t207.5 45q145 0 220 -38l-51 -167q-70 58 -186 58q-64 0 -128.5 -42t-117 -113.5t-85.5 -177t-33 -222.5q0 -173 51.5 -247t156.5 -74q65 0 126 32.5t137 106.5l65 -106q-41 -55 -116.5 -107t-169.5 -68q24 -62 24 -156 q0 -158 -77.5 -228.5t-200.5 -70.5q-41 0 -86.5 8t-61.5 20l25 151q26 -14 71 -14q72 0 115.5 39t43.5 141v32.5v41.5v35q-148 23 -225 138t-77 306z" />
<glyph unicode="&#xe8;" horiz-adv-x="1035" d="M86 434q5 200 80 364t211 261t307 97q138 0 209.5 -69.5t71.5 -180.5q0 -69 -25.5 -130.5t-67.5 -108t-99.5 -85.5t-119 -66t-127.5 -47t-124 -30t-110 -14q-3 -51 4.5 -97t28.5 -91t66.5 -72t110.5 -27q163 0 332 159l55 -111q-53 -73 -166 -137.5t-244 -64.5 q-102 0 -181 38t-124.5 102t-67.5 143t-20 167zM257 1576l153 137l288 -402l-85 -70q-65 27 -187.5 140.5t-168.5 194.5zM297 564q64 3 142.5 27t153.5 63.5t125.5 102t50.5 132.5q0 119 -128 119q-73 0 -136.5 -44t-105 -112.5t-68 -143t-34.5 -144.5z" />
<glyph unicode="&#xe9;" horiz-adv-x="1035" d="M86 434q5 200 80 364t211 261t307 97q138 0 209.5 -69.5t71.5 -180.5q0 -69 -25.5 -130.5t-67.5 -108t-99.5 -85.5t-119 -66t-127.5 -47t-124 -30t-110 -14q-3 -51 4.5 -97t28.5 -91t66.5 -72t110.5 -27q163 0 332 159l55 -111q-53 -73 -166 -137.5t-244 -64.5 q-102 0 -181 38t-124.5 102t-67.5 143t-20 167zM297 564q64 3 142.5 27t153.5 63.5t125.5 102t50.5 132.5q0 119 -128 119q-73 0 -136.5 -44t-105 -112.5t-68 -143t-34.5 -144.5zM535 1312l307 401l152 -137q-31 -58 -162.5 -180.5t-213.5 -154.5z" />
<glyph unicode="&#xea;" horiz-adv-x="1035" d="M86 434q5 200 80 364t211 261t307 97q138 0 209.5 -69.5t71.5 -180.5q0 -69 -25.5 -130.5t-67.5 -108t-99.5 -85.5t-119 -66t-127.5 -47t-124 -30t-110 -14q-3 -51 4.5 -97t28.5 -91t66.5 -72t110.5 -27q163 0 332 159l55 -111q-53 -73 -166 -137.5t-244 -64.5 q-102 0 -181 38t-124.5 102t-67.5 143t-20 167zM280 1276l327 374h178l190 -374l-94 -68l-211 264l-313 -273zM297 564q64 3 142.5 27t153.5 63.5t125.5 102t50.5 132.5q0 119 -128 119q-73 0 -136.5 -44t-105 -112.5t-68 -143t-34.5 -144.5z" />
<glyph unicode="&#xeb;" horiz-adv-x="1035" d="M86 434q5 200 80 364t211 261t307 97q138 0 209.5 -69.5t71.5 -180.5q0 -69 -25.5 -130.5t-67.5 -108t-99.5 -85.5t-119 -66t-127.5 -47t-124 -30t-110 -14q-3 -51 4.5 -97t28.5 -91t66.5 -72t110.5 -27q163 0 332 159l55 -111q-53 -73 -166 -137.5t-244 -64.5 q-102 0 -181 38t-124.5 102t-67.5 143t-20 167zM297 564q64 3 142.5 27t153.5 63.5t125.5 102t50.5 132.5q0 119 -128 119q-73 0 -136.5 -44t-105 -112.5t-68 -143t-34.5 -144.5zM325 1508q2 57 46 100t99 43q56 0 90 -33.5t32 -81.5q-2 -59 -47 -103.5t-105 -44.5 q-49 0 -83 35.5t-32 84.5zM745 1508q2 57 46 100t99 43q56 0 90 -33.5t32 -81.5q-2 -59 -47 -103.5t-105 -44.5q-49 0 -83 35.5t-32 84.5z" />
<glyph unicode="&#xec;" horiz-adv-x="584" d="M24 1576l153 137l288 -402l-85 -70q-65 27 -187.5 140.5t-168.5 194.5zM124 0l155 1140h195l-155 -1140h-195z" />
<glyph unicode="&#xed;" horiz-adv-x="584" d="M124 0l155 1140h195l-155 -1140h-195zM302 1312l307 401l152 -137q-31 -58 -162.5 -180.5t-213.5 -154.5z" />
<glyph unicode="&#xee;" horiz-adv-x="584" d="M47 1276l327 374h178l190 -374l-94 -68l-211 264l-313 -273zM124 0l155 1140h195l-155 -1140h-195z" />
<glyph unicode="&#xef;" horiz-adv-x="584" d="M92 1508q2 57 46 100t99 43q56 0 90 -33.5t32 -81.5q-2 -59 -47 -103.5t-105 -44.5q-49 0 -83 35.5t-32 84.5zM124 0l155 1140h195l-155 -1140h-195zM512 1508q2 57 46 100t99 43q56 0 90 -33.5t32 -81.5q-2 -59 -47 -103.5t-105 -44.5q-49 0 -83 35.5t-32 84.5z" />
<glyph unicode="&#xf0;" horiz-adv-x="1182" d="M89 446q0 132 31 247t85 198.5t125 144t152 90.5t166 30q77 0 149 -28t107 -86q-22 135 -70 226t-144 178l-150 -168l-106 88l157 163q-141 107 -241 133l43 119q56 -15 138.5 -55.5t154.5 -87.5q28 31 66.5 75.5t62.5 73.5l24 29l98 -89l-148 -169q154 -147 226.5 -315 t72.5 -374q0 -182 -39 -341.5t-112 -281t-187 -192t-255 -70.5q-80 0 -148 27.5t-114.5 73.5t-79.5 106t-48.5 124.5t-15.5 130.5zM300 434q0 -128 60 -220t164 -92q122 0 217 137.5t126 338.5q24 152 25 177q1 19 -7.5 47.5t-28 62.5t-47.5 62.5t-72 47.5t-95 19 q-86 0 -154 -52t-107.5 -137t-60 -185t-20.5 -206z" />
<glyph unicode="&#xf1;" horiz-adv-x="1194" d="M83 4l155 1136h185l-21 -224v-1q91 107 208.5 174t233.5 67q113 0 167.5 -68.5t54.5 -221.5q0 -74 -40 -351q-13 -93 -42 -286.5t-34 -224.5h-196q12 87 74 510q39 264 39 340q0 74 -25 97.5t-80 23.5q-83 0 -195 -77t-193 -184l-96 -710h-195zM275 1481q33 65 116.5 117 t160.5 52q42 0 78 -14.5t60 -35t45 -41t45 -35t49 -14.5q21 0 38.5 5.5t34 20t25 23.5t25 32t21.5 29l85 -89q-25 -76 -103.5 -129.5t-164.5 -53.5q-45 0 -81.5 14t-60 34.5t-45 41t-48 35t-56.5 15.5q-19 0 -35 -4.5t-31.5 -16.5t-23.5 -19.5t-25 -26.5t-22 -24z" />
<glyph unicode="&#xf2;" horiz-adv-x="1135" d="M89 445q-2 135 40.5 264t117 228t183.5 159t231 60q187 0 281.5 -119t98.5 -341q3 -182 -66.5 -344.5t-201.5 -265t-294 -102.5q-188 0 -287 120t-103 341zM261 1576l153 137l288 -402l-85 -70q-65 27 -187.5 140.5t-168.5 194.5zM292 447q5 -316 217 -316 q82 0 147.5 52.5t104 136.5t58 181t17.5 194q-2 155 -51 234.5t-155 79.5q-82 0 -149 -52.5t-108 -135.5t-62 -180.5t-19 -193.5z" />
<glyph unicode="&#xf3;" horiz-adv-x="1135" d="M89 445q-2 135 40.5 264t117 228t183.5 159t231 60q187 0 281.5 -119t98.5 -341q3 -182 -66.5 -344.5t-201.5 -265t-294 -102.5q-188 0 -287 120t-103 341zM292 447q5 -316 217 -316q82 0 147.5 52.5t104 136.5t58 181t17.5 194q-2 155 -51 234.5t-155 79.5 q-82 0 -149 -52.5t-108 -135.5t-62 -180.5t-19 -193.5zM539 1312l307 401l152 -137q-31 -58 -162.5 -180.5t-213.5 -154.5z" />
<glyph unicode="&#xf4;" horiz-adv-x="1135" d="M89 445q-2 135 40.5 264t117 228t183.5 159t231 60q187 0 281.5 -119t98.5 -341q3 -182 -66.5 -344.5t-201.5 -265t-294 -102.5q-188 0 -287 120t-103 341zM284 1276l327 374h178l190 -374l-94 -68l-211 264l-313 -273zM292 447q5 -316 217 -316q82 0 147.5 52.5 t104 136.5t58 181t17.5 194q-2 155 -51 234.5t-155 79.5q-82 0 -149 -52.5t-108 -135.5t-62 -180.5t-19 -193.5z" />
<glyph unicode="&#xf5;" horiz-adv-x="1135" d="M89 445q-2 135 40.5 264t117 228t183.5 159t231 60q187 0 281.5 -119t98.5 -341q3 -182 -66.5 -344.5t-201.5 -265t-294 -102.5q-188 0 -287 120t-103 341zM265 1481q33 65 116.5 117t160.5 52q42 0 78 -14.5t60 -35t45 -41t45 -35t49 -14.5q21 0 38.5 5.5t34 20t25 23.5 t25 32t21.5 29l85 -89q-25 -76 -103.5 -129.5t-164.5 -53.5q-45 0 -81.5 14t-60 34.5t-45 41t-48 35t-56.5 15.5q-19 0 -35 -4.5t-31.5 -16.5t-23.5 -19.5t-25 -26.5t-22 -24zM292 447q5 -316 217 -316q82 0 147.5 52.5t104 136.5t58 181t17.5 194q-2 155 -51 234.5 t-155 79.5q-82 0 -149 -52.5t-108 -135.5t-62 -180.5t-19 -193.5z" />
<glyph unicode="&#xf6;" horiz-adv-x="1135" d="M89 445q-2 135 40.5 264t117 228t183.5 159t231 60q187 0 281.5 -119t98.5 -341q3 -182 -66.5 -344.5t-201.5 -265t-294 -102.5q-188 0 -287 120t-103 341zM292 447q5 -316 217 -316q82 0 147.5 52.5t104 136.5t58 181t17.5 194q-2 155 -51 234.5t-155 79.5 q-82 0 -149 -52.5t-108 -135.5t-62 -180.5t-19 -193.5zM329 1508q2 57 46 100t99 43q56 0 90 -33.5t32 -81.5q-2 -59 -47 -103.5t-105 -44.5q-49 0 -83 35.5t-32 84.5zM749 1508q2 57 46 100t99 43q56 0 90 -33.5t32 -81.5q-2 -59 -47 -103.5t-105 -44.5q-49 0 -83 35.5 t-32 84.5z" />
<glyph unicode="&#xf7;" horiz-adv-x="1338" d="M241 696l18 157h869l-18 -157h-869zM494 377q7 60 61.5 103.5t113.5 43.5q66 0 96 -35.5t24 -89.5q-8 -63 -60 -105t-113 -42q-56 0 -92 34.5t-30 90.5zM590 1151q6 61 61 104t114 43q66 0 96.5 -35.5t24.5 -89.5q-7 -63 -60.5 -105t-113.5 -42q-55 0 -91.5 34.5 t-30.5 90.5z" />
<glyph unicode="&#xf8;" horiz-adv-x="1135" d="M34 -83l144 208q-85 118 -88 322q-2 135 40.5 264t117 228t183.5 159t231 60q107 0 184 -41l131 186l89 -49l-138 -198q109 -115 114 -358q3 -182 -66.5 -344.5t-201.5 -265t-294 -102.5q-137 0 -229 66l-128 -184zM293 449q2 -87 17 -146l431 677q-45 31 -110 31 q-82 0 -149 -52.5t-108 -135.5t-62 -180.5t-19 -193.5zM362 197q53 -64 148 -64q82 0 147.5 52.5t104 136.5t58 181t17.5 194q-2 120 -32 196z" />
<glyph unicode="&#xf9;" horiz-adv-x="1173" d="M102 270q0 63 21 228q36 284 90 642h196q-12 -89 -44.5 -316.5t-44.5 -326.5q-19 -146 -19 -215q0 -76 32 -103.5t103 -27.5q83 0 182 76t173 185l97 728h195l-151 -1140h-182l21 218q-82 -107 -187 -172.5t-220 -65.5q-134 0 -198 68t-64 222zM290 1576l153 137 l288 -402l-85 -70q-65 27 -187.5 140.5t-168.5 194.5z" />
<glyph unicode="&#xfa;" horiz-adv-x="1173" d="M102 270q0 63 21 228q36 284 90 642h196q-12 -89 -44.5 -316.5t-44.5 -326.5q-19 -146 -19 -215q0 -76 32 -103.5t103 -27.5q83 0 182 76t173 185l97 728h195l-151 -1140h-182l21 218q-82 -107 -187 -172.5t-220 -65.5q-134 0 -198 68t-64 222zM568 1312l307 401 l152 -137q-31 -58 -162.5 -180.5t-213.5 -154.5z" />
<glyph unicode="&#xfb;" horiz-adv-x="1173" d="M102 270q0 63 21 228q36 284 90 642h196q-12 -89 -44.5 -316.5t-44.5 -326.5q-19 -146 -19 -215q0 -76 32 -103.5t103 -27.5q83 0 182 76t173 185l97 728h195l-151 -1140h-182l21 218q-82 -107 -187 -172.5t-220 -65.5q-134 0 -198 68t-64 222zM313 1276l327 374h178 l190 -374l-94 -68l-211 264l-313 -273z" />
<glyph unicode="&#xfc;" horiz-adv-x="1173" d="M102 270q0 63 21 228q36 284 90 642h196q-12 -89 -44.5 -316.5t-44.5 -326.5q-19 -146 -19 -215q0 -76 32 -103.5t103 -27.5q83 0 182 76t173 185l97 728h195l-151 -1140h-182l21 218q-82 -107 -187 -172.5t-220 -65.5q-134 0 -198 68t-64 222zM358 1508q2 57 46 100 t99 43q56 0 90 -33.5t32 -81.5q-2 -59 -47 -103.5t-105 -44.5q-49 0 -83 35.5t-32 84.5zM778 1508q2 57 46 100t99 43q56 0 90 -33.5t32 -81.5q-2 -59 -47 -103.5t-105 -44.5q-49 0 -83 35.5t-32 84.5z" />
<glyph unicode="&#xfd;" horiz-adv-x="1050" d="M-195 -474l56 162q2 -1 11.5 -5.5t18 -8t21.5 -7.5t30.5 -6.5t37.5 -2.5q104 0 203.5 70t226.5 256h-121l-65 375l-109 781h216l84 -781l40 -303l103 183q200 321 244 767q5 60 7 134h192q5 -65 -1 -133q-26 -356 -250 -778q-113 -214 -249 -383q-99 -123 -151 -173 q-181 -174 -403 -174q-61 0 -142 27zM460 1312l307 401l152 -137q-31 -58 -162.5 -180.5t-213.5 -154.5z" />
<glyph unicode="&#xfe;" horiz-adv-x="1163" d="M12 -516l71 500l219 1654h185l-55 -491l-36 -193q65 85 160 143.5t204 58.5q154 0 232 -115t78 -317q0 -97 -23.5 -197.5t-75.5 -198.5t-125.5 -174t-183.5 -123t-240 -47q-64 0 -144 15l-20 -135l-56 -380h-190zM300 151q70 -24 153 -24q102 0 184.5 55.5t131 143 t74 184.5t25.5 190q0 304 -143 304q-52 0 -105 -23t-97.5 -61.5t-79.5 -78.5t-63 -82z" />
<glyph unicode="&#xff;" horiz-adv-x="1050" d="M-195 -474l56 162q2 -1 11.5 -5.5t18 -8t21.5 -7.5t30.5 -6.5t37.5 -2.5q104 0 203.5 70t226.5 256h-121l-65 375l-109 781h216l84 -781l40 -303l103 183q200 321 244 767q5 60 7 134h192q5 -65 -1 -133q-26 -356 -250 -778q-113 -214 -249 -383q-99 -123 -151 -173 q-181 -174 -403 -174q-61 0 -142 27zM250 1508q2 57 46 100t99 43q56 0 90 -33.5t32 -81.5q-2 -59 -47 -103.5t-105 -44.5q-49 0 -83 35.5t-32 84.5zM670 1508q2 57 46 100t99 43q56 0 90 -33.5t32 -81.5q-2 -59 -47 -103.5t-105 -44.5q-49 0 -83 35.5t-32 84.5z" />
<glyph unicode="&#x152;" horiz-adv-x="2106" d="M108 610q-5 261 85.5 476t254 337.5t366.5 122.5q155 0 259.5 -81.5t157.5 -225.5l37 291h767l-7 -157l-581 8l-67 -527l438 7l-12 -166l-443 15l-72 -561l700 16l-14 -165h-902l33 262q-92 -132 -222 -205t-287 -73q-118 0 -212 49t-153.5 135.5t-91.5 198.5t-34 243z M314 648q5 -265 82 -388.5t235 -123.5q138 0 247.5 104t166.5 274t54 369q-4 263 -81 384.5t-236 121.5q-103 0 -193 -62.5t-150.5 -165.5t-94 -237t-30.5 -276z" />
<glyph unicode="&#x153;" horiz-adv-x="1764" d="M89 443q-2 107 23.5 211.5t75 194.5t117.5 159t157.5 108.5t187.5 39.5q250 0 343 -202q168 202 420 202q138 0 209.5 -69.5t71.5 -180.5q0 -69 -25.5 -130.5t-67.5 -108t-99.5 -85.5t-119 -66t-127.5 -47t-124 -30t-110 -14q-3 -51 4.5 -97t28.5 -91t66.5 -72t110.5 -27 q163 0 332 159l55 -111q-53 -73 -166 -137.5t-244 -64.5q-241 0 -342 198q-162 -198 -387 -198q-188 0 -287 119t-103 340zM292 445q5 -314 217 -314q83 0 149.5 57.5t105 143t57.5 191.5q3 29 9 62q7 74 6 121q-5 303 -217 303q-82 0 -147.5 -53t-104 -137.5t-58 -181.5 t-17.5 -192zM1026 564q64 3 142.5 27t153.5 63.5t125.5 102t50.5 132.5q0 119 -128 119q-73 0 -136.5 -44t-105 -112.5t-68 -143t-34.5 -144.5z" />
<glyph unicode="&#x178;" horiz-adv-x="1083" d="M83 1530h212l248 -692l32 -76l38 76l412 692h212l-593 -940l-76 -590h-188l76 590zM368 1815q2 56 47.5 100t95.5 44q56 0 90 -33.5t32 -82.5q-2 -58 -48 -102.5t-104 -44.5q-47 0 -81 35.5t-32 83.5zM785 1815q0 56 48 100t98 44q56 0 89.5 -34t31.5 -82 q-2 -58 -47.5 -102.5t-104.5 -44.5q-47 0 -81 35t-34 84z" />
<glyph unicode="&#x2c6;" horiz-adv-x="795" d="M49 1276l327 374h178l190 -374l-94 -68l-211 264l-313 -273z" />
<glyph unicode="&#x2dc;" horiz-adv-x="815" d="M9 1481q33 65 116.5 117t160.5 52q42 0 78 -14.5t60 -35t45 -41t45 -35t49 -14.5q21 0 38.5 5.5t34 20t25 23.5t25 32t21.5 29l85 -89q-25 -76 -103.5 -129.5t-164.5 -53.5q-45 0 -81.5 14t-60 34.5t-45 41t-48 35t-56.5 15.5q-19 0 -35 -4.5t-31.5 -16.5t-23.5 -19.5 t-25 -26.5t-22 -24z" />
<glyph unicode="&#x2000;" horiz-adv-x="1000" />
<glyph unicode="&#x2001;" horiz-adv-x="2000" />
<glyph unicode="&#x2002;" horiz-adv-x="1000" />
<glyph unicode="&#x2003;" horiz-adv-x="2000" />
<glyph unicode="&#x2004;" horiz-adv-x="666" />
<glyph unicode="&#x2005;" horiz-adv-x="500" />
<glyph unicode="&#x2006;" horiz-adv-x="333" />
<glyph unicode="&#x2007;" horiz-adv-x="333" />
<glyph unicode="&#x2008;" horiz-adv-x="250" />
<glyph unicode="&#x2009;" horiz-adv-x="400" />
<glyph unicode="&#x200a;" horiz-adv-x="111" />
<glyph unicode="&#x2010;" horiz-adv-x="1266" d="M218 693l18 158h837l-18 -158h-837z" />
<glyph unicode="&#x2011;" horiz-adv-x="1266" d="M218 693l18 158h837l-18 -158h-837z" />
<glyph unicode="&#x2012;" horiz-adv-x="1266" d="M218 693l18 158h837l-18 -158h-837z" />
<glyph unicode="&#x2013;" horiz-adv-x="1538" d="M218 694l30 157h1097l-30 -157h-1097z" />
<glyph unicode="&#x2014;" horiz-adv-x="2031" d="M218 694l29 157h1591l-30 -157h-1590z" />
<glyph unicode="&#x2018;" horiz-adv-x="682" d="M189 1250q0 81 21 153.5t53 124.5t76 96t83.5 70.5t80.5 46.5l75 -111l-2 -22q-61 -31 -115.5 -119t-54.5 -198q0 -130 92 -207l-5 -41l-122 -116q-68 29 -125 119.5t-57 203.5z" />
<glyph unicode="&#x2019;" horiz-adv-x="682" d="M214 1027l2 22q61 31 115.5 119t54.5 198q0 130 -92 207l5 41l122 116q68 -29 125 -119.5t57 -203.5q0 -81 -21 -153.5t-53 -124.5t-76 -96t-83.5 -70.5t-80.5 -46.5z" />
<glyph unicode="&#x201a;" horiz-adv-x="682" d="M100 -412l2 22q61 31 115.5 119t54.5 198q0 130 -92 207l5 41l122 116q68 -29 125 -119.5t57 -203.5q0 -81 -21 -153.5t-53 -124.5t-76 -96t-83.5 -70.5t-80.5 -46.5z" />
<glyph unicode="&#x201c;" horiz-adv-x="1161" d="M189 1250q0 81 21 153.5t53 124.5t76 96t83.5 70.5t80.5 46.5l75 -111l-2 -22q-61 -31 -115.5 -119t-54.5 -198q0 -130 92 -207l-5 -41l-122 -116q-68 29 -125 119.5t-57 203.5zM668 1250q0 81 21 153.5t53 124.5t76 96t83.5 70.5t80.5 46.5l75 -111l-2 -22 q-61 -31 -115.5 -119t-54.5 -198q0 -130 92 -207l-5 -41l-122 -116q-68 29 -125 119.5t-57 203.5z" />
<glyph unicode="&#x201d;" horiz-adv-x="1161" d="M284 1027l2 22q61 31 115.5 119t54.5 198q0 130 -92 207l5 41l122 116q68 -29 125 -119.5t57 -203.5q0 -81 -21 -153.5t-53 -124.5t-76 -96t-83.5 -70.5t-80.5 -46.5zM763 1027l2 22q61 31 115.5 119t54.5 198q0 130 -92 207l5 41l122 116q68 -29 125 -119.5t57 -203.5 q0 -81 -21 -153.5t-53 -124.5t-76 -96t-83.5 -70.5t-80.5 -46.5z" />
<glyph unicode="&#x201e;" horiz-adv-x="1161" d="M100 -412l2 22q61 31 115.5 119t54.5 198q0 130 -92 207l5 41l122 116q68 -29 125 -119.5t57 -203.5q0 -81 -21 -153.5t-53 -124.5t-76 -96t-83.5 -70.5t-80.5 -46.5zM579 -412l2 22q61 31 115.5 119t54.5 198q0 130 -92 207l5 41l122 116q68 -29 125 -119.5t57 -203.5 q0 -81 -21 -153.5t-53 -124.5t-76 -96t-83.5 -70.5t-80.5 -46.5z" />
<glyph unicode="&#x2022;" horiz-adv-x="858" d="M233 683q0 94 74 175t177 81q76 0 126 -49t50 -123q0 -97 -71 -178.5t-180 -81.5q-74 0 -125 51.5t-51 124.5z" />
<glyph unicode="&#x2026;" horiz-adv-x="1579" d="M88 103q8 62 54.5 104.5t103.5 42.5q68 0 97.5 -35t22.5 -90q-9 -65 -58 -106t-110 -41q-55 0 -86 34t-24 91zM614 103q8 62 54.5 104.5t103.5 42.5q68 0 97.5 -35t22.5 -90q-9 -65 -58 -106t-110 -41q-55 0 -86 34t-24 91zM1140 103q8 62 54.5 104.5t103.5 42.5 q68 0 97.5 -35t22.5 -90q-9 -65 -58 -106t-110 -41q-55 0 -86 34t-24 91z" />
<glyph unicode="&#x202f;" horiz-adv-x="400" />
<glyph unicode="&#x2039;" horiz-adv-x="1190" d="M234 530l22 160l692 396l38 -115l-510 -356l414 -351l-70 -112z" />
<glyph unicode="&#x203a;" horiz-adv-x="1190" d="M175 267l510 356l-414 351l70 112l586 -378l-22 -160l-692 -396z" />
<glyph unicode="&#x205f;" horiz-adv-x="500" />
<glyph unicode="&#x20ac;" horiz-adv-x="1389" d="M25 554l20 141h179q3 98 22 199h-176l20 140h193q80 239 251.5 375.5t395.5 136.5q72 0 139 -10.5t92 -17.5t83 -26l-64 -159q-23 24 -105.5 44.5t-198.5 20.5q-144 0 -242 -94.5t-149 -269.5h542l-19 -140h-553q-16 -101 -19 -199h546l-19 -141h-527q18 -423 286 -423 q122 0 202.5 30t161.5 86l56 -136q-53 -60 -173 -93.5t-276 -33.5q-89 0 -163.5 32t-126.5 86t-90 128t-58.5 154.5t-27.5 169.5h-202z" />
<glyph unicode="&#x2122;" horiz-adv-x="2120" d="M173 1385l22 145h666l-16 -145h-250l-88 -631l-171 -1l88 632h-251zM903 754l148 776h273l97 -436l30 -132l236 568h287l-25 -776h-174l23 463l14 223l-29 -70l-295 -624h-127l-138 547l-35 150l-26 -157l-98 -532h-161z" />
<glyph unicode="&#x25fc;" horiz-adv-x="1140" d="M0 0v1140h1140v-1140h-1140z" />
</font>
</defs>
</svg>
