<?xml version="1.0" standalone="no"?>
<!DOCTYPE svg PUBLIC "-//W3C//DTD SVG 1.1//EN" "http://www.w3.org/Graphics/SVG/1.1/DTD/svg11.dtd" >
<svg xmlns="http://www.w3.org/2000/svg">
<metadata></metadata>
<defs>
<font id="merriweather_sansbold_italic" horiz-adv-x="0" >
<font-face units-per-em="2048" ascent="1638" descent="-410" />
<missing-glyph horiz-adv-x="485" />
<glyph unicode="&#xfb01;" horiz-adv-x="1354" d="M129 0l130 954h-130l34 186h122l16 100q28 198 147.5 317t308.5 119q104 0 164 -26l-56 -199q-49 41 -125 40q-63 -1 -105 -50.5t-57 -145.5l-24 -155h200l-20 -186h-203q-130 -949 -130 -954h-272zM832 0l156 1140h277l-157 -1140h-276zM1021 1494q2 70 53 121t124 51 q68 0 110 -41t40 -99q-2 -74 -53 -124.5t-132 -50.5q-59 0 -101.5 42t-40.5 101z" />
<glyph unicode="&#xfb02;" horiz-adv-x="1355" d="M129 0l130 954h-130l34 186h122l16 100q28 198 147.5 317t308.5 119q104 0 164 -26l-56 -199q-49 41 -125 40q-63 -1 -105 -50.5t-57 -145.5l-24 -155h200l-20 -186h-203q-130 -949 -130 -954h-272zM834 2l222 1634h277l-223 -1634h-276z" />
<glyph unicode="&#xfb03;" horiz-adv-x="2084" d="M129 0l130 954h-130l34 186h122l16 100q28 198 147.5 317t308.5 119q104 0 164 -26l-56 -199q-49 41 -125 40q-63 -1 -105 -50.5t-57 -145.5l-24 -155h200l-20 -186h-203q-130 -949 -130 -954h-272zM859 0l130 954h-130l34 186h122l16 100q28 198 147.5 317t308.5 119 q104 0 164 -26l-56 -199q-49 41 -125 40q-63 -1 -105 -50.5t-57 -145.5l-24 -155h200l-20 -186h-203q-130 -949 -130 -954h-272zM1562 0l156 1140h277l-157 -1140h-276zM1751 1494q2 70 53 121t124 51q68 0 110 -41t40 -99q-2 -74 -53 -124.5t-132 -50.5q-59 0 -101.5 42 t-40.5 101z" />
<glyph unicode="&#xfb04;" horiz-adv-x="2085" d="M129 0l130 954h-130l34 186h122l16 100q28 198 147.5 317t308.5 119q104 0 164 -26l-56 -199q-49 41 -125 40q-63 -1 -105 -50.5t-57 -145.5l-24 -155h200l-20 -186h-203q-130 -949 -130 -954h-272zM859 0l130 954h-130l34 186h122l16 100q28 198 147.5 317t308.5 119 q104 0 164 -26l-56 -199q-49 41 -125 40q-63 -1 -105 -50.5t-57 -145.5l-24 -155h200l-20 -186h-203q-130 -949 -130 -954h-272zM1564 2l222 1634h277l-223 -1634h-276z" />
<glyph horiz-adv-x="2048" />
<glyph horiz-adv-x="2048" />
<glyph unicode="&#xd;" horiz-adv-x="2048" />
<glyph />
<glyph />
<glyph />
<glyph />
<glyph />
<glyph />
<glyph />
<glyph />
<glyph unicode="&#x9;" />
<glyph unicode="&#xa;" />
<glyph />
<glyph />
<glyph />
<glyph />
<glyph />
<glyph />
<glyph />
<glyph />
<glyph />
<glyph />
<glyph />
<glyph />
<glyph unicode=" "  horiz-adv-x="485" />
<glyph unicode="&#x09;" horiz-adv-x="485" />
<glyph unicode="&#xa0;" horiz-adv-x="485" />
<glyph unicode="!" horiz-adv-x="686" d="M113 113q5 75 59.5 128t133.5 53q75 0 109 -38.5t31 -98.5q-4 -82 -58.5 -132.5t-136.5 -50.5q-64 0 -103 38.5t-35 100.5zM224 488l146 1290h295l-233 -1290h-208z" />
<glyph unicode="&#x22;" horiz-adv-x="1068" d="M220 966l81 721h277l-174 -721h-184zM744 966l81 721h277l-174 -721h-184z" />
<glyph unicode="#" horiz-adv-x="1405" d="M110 343l14 178h206l57 353h-200l13 174h212l50 309h205l-48 -309h271l53 309h205l-51 -309h212l-13 -174h-224l-58 -353h207l-14 -178h-219l-56 -343h-200l50 343h-272l-61 -343h-202l57 343h-194zM536 521h272l57 353h-271z" />
<glyph unicode="$" horiz-adv-x="1204" d="M101 73l85 221q40 -36 128.5 -66.5t169.5 -30.5q122 0 194 47.5t72 142.5q0 77 -45.5 142.5t-158.5 143.5q-60 42 -105 82t-90 95t-70.5 122t-26.5 142q-4 169 103 281t286 141l38 225h211l-37 -220q160 -17 251 -80l-86 -216q-38 39 -118 62.5t-151 23.5 q-100 0 -165.5 -40.5t-68.5 -125.5q-2 -90 44 -149t174 -153q49 -35 83 -62t77 -70t70 -84t46.5 -96t20.5 -114q3 -191 -108 -305.5t-307 -142.5l-42 -242h-210l41 238q-98 10 -187 36.5t-118 51.5z" />
<glyph unicode="%" horiz-adv-x="1957" d="M152 1045q0 116 57 221.5t161.5 172.5t229.5 67q155 0 228 -84.5t73 -234.5q0 -90 -32 -175.5t-88.5 -153t-142.5 -108.5t-185 -41q-145 0 -223 91t-78 245zM350 1055q0 -82 37 -131.5t102 -49.5q51 0 92 30.5t64 77t35.5 95t12.5 92.5q0 80 -34 127t-95 47 q-51 0 -93.5 -29t-68 -73.5t-39 -93t-13.5 -92.5zM466 0l837 1530h204l-827 -1530h-214zM1105 398q0 115 57 220.5t162 173t230 67.5q154 0 227 -85t73 -235q0 -121 -53.5 -229t-157.5 -178t-236 -70q-146 0 -224 91t-78 245zM1303 407q0 -81 37 -130.5t103 -49.5 q50 0 91 30.5t64.5 76.5t36 95t12.5 93q0 80 -34 126.5t-95 46.5q-68 0 -119 -49.5t-73.5 -113.5t-22.5 -125z" />
<glyph unicode="&#x26;" horiz-adv-x="1550" d="M50 365q0 71 26 133t75.5 113t103.5 89.5t128 80.5q-84 188 -84 337q0 185 124 306.5t330 121.5q100 0 176.5 -28.5t119 -75t63.5 -98.5t21 -106q0 -52 -14 -100.5t-34.5 -87t-57 -77.5t-69 -67t-83 -62t-86 -55.5t-91.5 -52.5q158 -263 329 -421q75 89 75 217 q0 54 -12 105q-68 -6 -101 -26l10 179q36 40 152 40l367 -1l-14 -190h-151q3 -24 3 -53q0 -241 -151 -398q80 -35 195 -36q16 -1 57 -1l-31 -150q-62 -19 -201 -19q-135 0 -250 59q-156 -58 -346 -58q-126 0 -229 22t-182.5 66.5t-123.5 119.5t-44 174zM325 382 q0 -59 26 -101.5t73 -65.5t102.5 -33.5t122.5 -10.5q82 0 150 16q-106 103 -171.5 193.5t-147.5 226.5q-155 -108 -155 -225zM554 1140q0 -114 53 -238q63 35 107 64.5t84 67.5t60 81t20 92q0 76 -37.5 119.5t-110.5 43.5q-79 0 -127.5 -66.5t-48.5 -163.5z" />
<glyph unicode="'" horiz-adv-x="544" d="M220 966l81 721h277l-174 -721h-184z" />
<glyph unicode="(" horiz-adv-x="854" d="M167 523q0 132 20 264q20 135 64.5 263.5t100.5 227.5t117.5 184t123 146t109.5 100t84 58l133 -89q-63 -58 -124.5 -131.5t-131 -180.5t-125.5 -251t-84 -302q-24 -147 -24 -297q0 -118 17.5 -229t43.5 -191.5t61 -152.5t64 -115t58 -77l-142 -85h-17q-34 26 -72.5 66.5 t-89.5 118.5t-90.5 169t-67.5 224.5t-28 279.5z" />
<glyph unicode=")" horiz-adv-x="854" d="M-29 -249q63 58 124.5 131.5t131 180.5t125.5 251t84 302q24 147 24 297q0 118 -17.5 229t-43.5 191.5t-61 152.5t-64 115t-58 77l142 85h17q34 -26 72.5 -66.5t89.5 -118.5t90.5 -169t67.5 -224.5t28 -279.5q0 -132 -20 -264q-20 -135 -64.5 -263.5t-100.5 -227.5 t-117.5 -184t-123 -146t-109.5 -100t-84 -58z" />
<glyph unicode="*" horiz-adv-x="1366" d="M192 976l303 123l136 51l-125 50l-277 125l122 187l238 -187l99 -88l-6 139l-3 311h215l-68 -311l-38 -139l121 88l274 188l87 -188l-303 -125l-135 -51l125 -50l277 -123l-133 -187l-229 186l-102 91l11 -141l7 -312l-221 1l68 311l35 141l-116 -91l-270 -188z" />
<glyph unicode="+" horiz-adv-x="1359" d="M212 674l26 210h238l127 -11l11 152l29 255h225l-26 -255l-27 -151l106 10h265l-26 -210h-265l-104 7l-8 -150l-31 -258h-226l30 258l25 150l-132 -7h-237z" />
<glyph unicode="," horiz-adv-x="526" d="M-22 -402l3 21q73 37 118.5 111.5t45.5 156.5q0 65 -26 116t-65 65l7 54l131 158q54 -21 94.5 -59t61.5 -83.5t30.5 -88.5t9.5 -85q0 -166 -89 -295t-238 -179z" />
<glyph unicode="-" horiz-adv-x="1266" d="M221 671l27 203h839l-28 -203h-838z" />
<glyph unicode="." horiz-adv-x="526" d="M60 107q0 76 50.5 131.5t131.5 55.5q72 0 106 -36.5t34 -93.5q0 -87 -50.5 -138.5t-134.5 -51.5q-61 0 -99 37t-38 96z" />
<glyph unicode="/" horiz-adv-x="854" d="M-118 -362l862 1959h224l-863 -1959h-223z" />
<glyph unicode="0" horiz-adv-x="1278" d="M98 450q0 148 51.5 280t137.5 225t203 147t244 54q114 0 199 -35t136 -99t76 -146.5t25 -184.5q0 -140 -48 -269t-130.5 -225.5t-201 -154.5t-251.5 -58q-112 0 -198.5 38.5t-138 104.5t-78 148t-26.5 175zM369 478q0 -122 54 -202t155 -80q80 0 144 41.5t101.5 110 t57 149t19.5 164.5q0 282 -191 285q-75 1 -135.5 -29.5t-97.5 -79.5t-62 -113.5t-35 -125.5t-10 -120z" />
<glyph unicode="1" horiz-adv-x="983" d="M179 960q96 21 208.5 79t207.5 123l162 -15l-165 -1147h-279l121 847q-68 -22 -224 -49z" />
<glyph unicode="2" horiz-adv-x="1269" d="M57 136q190 97 348 210t258.5 231.5t100.5 208.5q0 152 -161 152q-76 0 -163 -41t-153 -96l-96 151q75 78 203.5 142.5t272.5 64.5q101 0 179.5 -27.5t126 -75t72 -107t24.5 -126.5q0 -83 -34.5 -161t-88.5 -140.5t-137.5 -126.5t-162.5 -111t-182 -101l661 30l-36 -213 h-993z" />
<glyph unicode="3" horiz-adv-x="1136" d="M45 -315l25 199q82 -10 132 -10q212 0 339 76.5t127 214.5q0 84 -55 137.5t-175 55.5l-164 -36l22 214q74 12 139.5 33t125 53.5t94.5 80.5t35 106q0 62 -42 94.5t-123 32.5q-143 0 -289 -113l-80 177q59 58 187.5 108.5t274.5 50.5q155 0 259.5 -73.5t104.5 -212.5 q0 -133 -103 -243.5t-261 -160.5q164 -3 259.5 -91.5t95.5 -210.5q0 -150 -106 -264t-278.5 -172t-379.5 -58q-69 0 -164 12z" />
<glyph unicode="4" horiz-adv-x="1284" d="M11 129q18 30 78 134t82 141.5t75.5 131.5t81.5 143.5t75.5 134.5t81 147.5t75 141t79.5 153.5h172l112 -89l-553 -885l-79 -105l410 17l55 420l258 35l-55 -446l226 15l-29 -218h-225l-47 -375h-259l49 375h-606z" />
<glyph unicode="5" horiz-adv-x="1146" d="M40 -339l30 186q43 -7 79 -7q98 0 190.5 19.5t173.5 59t130.5 108.5t49.5 159q0 216 -219 216q-54 0 -125 -15.5t-119 -37.5l-99 105l157 689h567l22 16h188l-60 -238h-507l-97 -360q98 32 223 32q182 0 281 -94t99 -274q0 -175 -109.5 -308t-298 -203t-426.5 -70 q-81 0 -130 17z" />
<glyph unicode="6" horiz-adv-x="1278" d="M128 503q0 249 112.5 476t314 390t454.5 229l62 -163q-110 -38 -211 -101.5t-174 -135t-124.5 -143.5t-74.5 -135q53 41 137.5 67t173.5 26q73 0 133 -22.5t100.5 -60.5t68.5 -90t40.5 -110.5t12.5 -123.5q0 -90 -21 -177t-67 -168t-111.5 -142.5t-162 -98t-211.5 -36.5 q-113 0 -201 40.5t-142 112.5t-81.5 164.5t-27.5 201.5zM391 501q0 -148 59.5 -238.5t166.5 -90.5q57 0 104 27t77 69.5t50.5 97t29 107t8.5 102.5q0 121 -52.5 180t-135.5 59q-98 0 -169 -36.5t-107 -78.5q-31 -112 -31 -198z" />
<glyph unicode="7" horiz-adv-x="1116" d="M89 926l49 217h922l41 -54l-614 -1424l-238 87l533 1176z" />
<glyph unicode="8" horiz-adv-x="1330" d="M125 351q0 81 30 153.5t82.5 127.5t117 95.5t139.5 68.5q-88 76 -136.5 156.5t-48.5 183.5q0 197 134.5 310t352.5 113q183 0 303 -92.5t120 -241.5q0 -151 -97 -259.5t-239 -157.5q123 -90 194.5 -187t71.5 -216q0 -130 -73.5 -227t-197.5 -146.5t-280 -49.5 q-128 0 -234 41t-172.5 126.5t-66.5 201.5zM398 388q0 -99 69 -164.5t168 -65.5q102 0 166 59.5t64 154.5q0 89 -65 166.5t-192 168.5q-92 -52 -150.5 -133t-59.5 -186zM574 1169q0 -76 49 -139.5t143 -132.5q89 47 144 125.5t55 180.5q0 87 -55 137t-133 50 q-91 0 -147 -62.5t-56 -158.5z" />
<glyph unicode="9" horiz-adv-x="1278" d="M120 538q0 90 21 177t67 168t112 142.5t162.5 98t211.5 36.5q113 0 200.5 -40.5t141.5 -112.5t81.5 -164.5t27.5 -201.5q0 -249 -112.5 -476.5t-314 -391.5t-454.5 -230l-61 163q109 38 210 101.5t174.5 134.5t125 142.5t74.5 134.5q-118 -93 -281 -93q-95 0 -170.5 34 t-121.5 92.5t-70 131t-24 154.5zM387 569q0 -123 56.5 -183.5t146.5 -60.5q91 0 158.5 36.5t103.5 78.5q31 121 31 203q0 148 -59.5 238.5t-167.5 90.5q-57 0 -104 -27t-77 -69.5t-50.5 -97t-29 -107t-8.5 -102.5z" />
<glyph unicode=":" horiz-adv-x="526" d="M39 107q0 76 50.5 131.5t131.5 55.5q72 0 106 -36.5t34 -93.5q0 -87 -50.5 -138.5t-134.5 -51.5q-61 0 -99 37t-38 96zM132 916q0 76 50.5 131.5t131.5 55.5q72 0 106 -36.5t34 -93.5q0 -87 -50.5 -138.5t-134.5 -51.5q-61 0 -99 37t-38 96z" />
<glyph unicode=";" horiz-adv-x="526" d="M-22 -402l3 21q73 37 118.5 111.5t45.5 156.5q0 65 -26 116t-65 65l7 54l131 158q54 -21 94.5 -59t61.5 -83.5t30.5 -88.5t9.5 -85q0 -166 -89 -295t-238 -179zM135 916q0 76 50.5 131.5t131.5 55.5q72 0 106 -36.5t34 -93.5q0 -87 -50.5 -138.5t-134.5 -51.5 q-61 0 -99 37t-38 96z" />
<glyph unicode="&#x3c;" horiz-adv-x="1382" d="M197 693l16 129l1019 515l-30 -252l-699 -338l616 -339l-23 -230z" />
<glyph unicode="=" horiz-adv-x="1074" d="M101 327l28 203h827l-27 -203h-828zM164 828l27 203h828l-28 -203h-827z" />
<glyph unicode="&#x3e;" horiz-adv-x="1382" d="M252 181l30 252l699 338l-616 339l23 230l899 -515l-16 -129z" />
<glyph unicode="?" horiz-adv-x="1040" d="M247 700q0 89 61 157.5t210 145.5q225 107 257 199q16 57 16 112q0 114 -92 184.5t-227 70.5q-115 0 -212 -28l42 185q24 22 86 37.5t123 15.5q137 0 242 -34.5t166.5 -95.5t92 -136.5t30.5 -164.5q0 -97 -31.5 -175t-81.5 -128t-110 -90t-120.5 -71t-110.5 -61.5 t-81.5 -71t-31.5 -89.5q0 -24 9 -52t20.5 -54t13.5 -35l-147 -58l-17 1q-42 32 -74.5 100.5t-32.5 135.5zM331 107q0 76 50.5 131.5t131.5 55.5q72 0 106 -36.5t34 -93.5q0 -87 -50.5 -138.5t-134.5 -51.5q-61 0 -99 37t-38 96z" />
<glyph unicode="@" horiz-adv-x="1998" d="M112 374q0 265 85.5 487t233.5 371t347.5 231t427.5 82q328 0 520 -175t192 -471q0 -137 -27 -261.5t-73.5 -220t-108 -173.5t-131 -128.5t-142.5 -77.5t-143 -27q-59 0 -82 48.5t-23 135.5q0 58 12 176q-71 -167 -166 -265.5t-202 -98.5q-53 0 -104 26.5t-95 77 t-70 136.5t-24 192q2 94 24 186.5t67.5 179t109.5 152.5t155.5 105.5t198.5 39.5q51 0 116.5 -14t103.5 -40l180 30q-55 -218 -99 -678q-11 -103 -11 -169q0 -27 13 -27q77 0 151.5 98t120 251t45.5 307q0 521 -553 521q-154 0 -290.5 -54.5t-237.5 -149t-174.5 -218 t-111 -265t-37.5 -286.5q0 -143 34 -257.5t92 -190.5t139 -126.5t170.5 -72.5t191.5 -22q105 0 205.5 22t156.5 49l46 -134q-70 -53 -184.5 -84.5t-241.5 -31.5q-235 0 -416 94.5t-286 280.5t-105 439zM776 466q0 -238 108 -238q55 0 131.5 117.5t135 268t71.5 252.5 q-21 29 -66.5 44t-86.5 15q-69 0 -126.5 -44t-92.5 -113t-54.5 -148t-19.5 -154z" />
<glyph unicode="A" horiz-adv-x="1305" d="M-100 -1l744 1531h334l257 -1530l-277 -1l-48 342h-561l-148 -341zM434 537h448l-95 682l-10 118l-47 -121z" />
<glyph unicode="B" horiz-adv-x="1296" d="M91 0l206 1530h141q44 0 145 8t156 8q108 0 192 -18.5t137 -49t87.5 -75t48.5 -92t14 -107.5q0 -152 -78 -256q-79 -106 -225 -145q131 -22 209 -105.5t79 -207.5v-5q0 -131 -49 -227q-50 -98 -145.5 -157t-223 -87.5t-290.5 -28.5q-40 0 -142.5 7.5t-137.5 7.5h-124z M393 192q52 -12 148 -12q178 0 274 66q95 65 95 222q0 124 -73 176q-72 52 -221 52q-74 0 -156 -5zM486 886q42 -2 131 -2q149 0 235 74q85 73 85 216q-1 98 -63 139t-189 41q-87 0 -137 -6z" />
<glyph unicode="C" horiz-adv-x="1167" d="M95 626v13q0 187 55 351q57 170 157 292.5t243 193t306 70.5q143 0 285 -52l54 -16l-86 -250q-115 86 -275 86q-99 0 -179.5 -42.5t-131.5 -110.5t-85 -158.5t-48 -181.5q-13 -85 -13 -172v-12q2 -204 76.5 -317t229.5 -113q103 0 196 32.5t137 66.5l38 -208 q-48 -37 -163.5 -75.5t-272.5 -38.5q-115 0 -206 37t-149 98t-96.5 145.5t-54.5 173.5t-17 188z" />
<glyph unicode="D" horiz-adv-x="1400" d="M91 0l206 1530h139q43 0 168.5 8t173.5 8q152 0 264.5 -44.5t180 -128t100.5 -194t34 -252.5v-17q1 -145 -31 -278q-34 -141 -102.5 -260t-164.5 -206q-96 -88 -228 -136q-127 -47 -273 -46h-12q-52 0 -129 7q-128 9 -203 9h-123zM396 214q75 -25 174 -25h22 q121 2 215.5 64.5t151.5 166.5t85 232q28 123 28 260v10q-1 161 -40 253t-115 130t-205 38q-90 0 -167 -17z" />
<glyph unicode="E" horiz-adv-x="1171" d="M91 0l206 1530h841l-22 -216l-572 5l-57 -432l428 6l-24 -221l-432 12l-63 -474l666 13l-25 -223h-946z" />
<glyph unicode="F" horiz-adv-x="1069" d="M91 0l206 1530h824l-28 -216l-549 6l-59 -449l449 7l-24 -230l-454 12l-89 -660h-276z" />
<glyph unicode="G" horiz-adv-x="1384" d="M92 617v13q0 196 58 365q59 175 163.5 295t247 188t304.5 68q194 0 365 -56l66 -22l-68 -250q-47 36 -147.5 70t-221.5 34q-105 0 -190 -43t-139.5 -112.5t-91 -160.5t-52.5 -183q-14 -86 -14 -174v-11q0 -95 18 -173.5t54.5 -140t98.5 -96t144 -34.5q59 0 133.5 14 t127.5 40l46 322h-240l27 220h501l-94 -703q-46 -6 -123 -28q-84 -24 -123.5 -34.5t-129.5 -25.5t-169 -15q-117 0 -212 37t-157 98t-103.5 144t-59.5 171t-19 183z" />
<glyph unicode="H" horiz-adv-x="1455" d="M85 0l206 1530h276l-91 -675h568l91 675h278l-206 -1530h-278l88 658h-568l-88 -658h-276z" />
<glyph unicode="I" horiz-adv-x="643" d="M113 0l206 1530h276l-206 -1530h-276z" />
<glyph unicode="J" horiz-adv-x="640" d="M-175 -233q117 33 194 123t98 196q37 176 71 415t74 585t53 444h277q-174 -1351 -205 -1455q-25 -89 -66.5 -158.5t-91 -114t-111.5 -74.5t-123 -44.5t-131 -19.5z" />
<glyph unicode="K" horiz-adv-x="1291" d="M91 0l206 1530h276l-97 -719l600 719h318l-610 -677q43 -74 89.5 -160.5t101 -190.5t84.5 -160q108 -205 197 -343l-328 2q-17 25 -162 322q-11 20 -160 332l-178 -197l-61 -458h-276z" />
<glyph unicode="L" horiz-adv-x="1023" d="M91 0l206 1530h276l-176 -1309l534 8l-32 -229h-808z" />
<glyph unicode="M" horiz-adv-x="1890" d="M9 0l399 1530h385l114 -1056l11 -197l49 197l391 1056h402l-30 -1530h-277l69 1080l26 308l-105 -284l-437 -1107l-265 -15l-140 1109l-19 297l-56 -302l-243 -1086h-274z" />
<glyph unicode="N" horiz-adv-x="1450" d="M91 0l206 1530h257l398 -927l71 -233l16 254l110 906h265l-206 -1530h-245l-402 954l-76 254l-12 -287l-120 -921h-262z" />
<glyph unicode="O" horiz-adv-x="1386" d="M87 594v11q-1 255 87 467q90 216 259 345t385 129q166 0 284.5 -84.5t174.5 -220.5t58 -307v-7q0 -191 -50 -361q-51 -174 -144 -302.5t-231 -204t-301 -75.5q-127 0 -227 48t-163.5 132t-97 193.5t-34.5 236.5zM372 622q3 -228 68 -328.5t199 -100.5q92 0 171 62 t131 163t81 229q28 124 28 253v9q-2 227 -67 326.5t-200 99.5q-92 0 -171 -63t-131 -165t-81 -229q-28 -123 -28 -247v-9z" />
<glyph unicode="P" horiz-adv-x="1239" d="M91 0l206 1530h136q40 0 143.5 8t168.5 8q240 0 368 -103.5t129 -310.5v-9q0 -177 -74 -316q-76 -142 -221.5 -222.5t-339.5 -80.5q-123 0 -171 6l-69 -510h-276zM465 727q54 -13 148 -13q341 3 354 394v17q1 107 -59 163q-64 60 -211 61q-69 0 -151 -15z" />
<glyph unicode="Q" horiz-adv-x="1387" d="M87 594v11q0 256 87 467q90 217 259 345.5t385 128.5q166 0 284.5 -84.5t174.5 -220.5t58 -307v-6q0 -236 -73 -435q-73 -202 -215 -335.5t-330 -164.5v-5q0 -37 13 -64q15 -28 38 -44t60.5 -25t72 -11.5t84.5 -2.5q166 0 252 27v-178q-39 -33 -146 -56.5t-201 -23.5 q-66 0 -124.5 12.5t-110.5 40t-83.5 71.5t-43.5 107q-5 23 -5 48q0 45 14 99q-145 17 -248 104t-151.5 215t-50.5 287zM372 622q3 -228 68 -328.5t199 -100.5q92 0 171 62t131 163t81 229q28 124 28 253v9q-2 227 -67 326.5t-200 99.5q-92 0 -171 -63t-131 -165t-81 -229 q-28 -123 -28 -247v-9z" />
<glyph unicode="R" horiz-adv-x="1307" d="M90 0l206 1530h152q58 0 147 8t152 8q504 0 509 -373v-8q0 -181 -84 -315q-86 -138 -259 -190q40 -36 79 -111t63 -156q74 -202 106 -278t60 -116l-309 2q-25 36 -93 257q-3 10 -5 16l-5 15t-5 17q-38 138 -83.5 221t-90.5 85q-117 1 -180 1l-84 -613h-276zM478 830 q53 -3 209 -3q77 0 135.5 28.5t91.5 76.5q32 48 48 106q14 51 14 108v15q-4 97 -68 141.5t-189 44.5q-99 0 -173 -13z" />
<glyph unicode="S" horiz-adv-x="1051" d="M12 78l88 224q40 -36 131 -67.5t172 -31.5q120 -1 190 49q71 50 71 148q0 74 -44 134q-44 62 -159 143q-58 41 -103 81.5t-89 95t-68 120.5t-25 139v6q0 195 136 310q138 117 363 117q123 0 214.5 -25.5t137.5 -59.5l-87 -216q-39 40 -115.5 63t-147.5 23 q-100 0 -165 -42.5t-68 -128.5v-13q0 -39 10 -73q12 -38 42.5 -74t65.5 -65.5t94 -72.5q62 -46 103 -81t89.5 -89.5t73.5 -117.5q26 -66 26 -137q0 -219 -151 -335q-152 -118 -404 -118q-112 0 -227.5 31.5t-153.5 62.5z" />
<glyph unicode="T" horiz-adv-x="1138" d="M133 1314l33 216h1055l-30 -216l-386 11l-178 -1325h-279l178 1325z" />
<glyph unicode="U" horiz-adv-x="1402" d="M131 430v8q0 60 13 157l125 935h276l-120 -895q-12 -97 -12 -192q2 -128 60.5 -185.5t179.5 -57.5q144 0 223.5 99.5t112.5 339.5l119 891h273l-122 -918q-46 -337 -200.5 -482.5t-446.5 -145.5q-238 0 -358.5 117t-122.5 329z" />
<glyph unicode="V" horiz-adv-x="1201" d="M116 1530h276l140 -1040l21 -242l82 242l416 1040h292l-678 -1530h-311z" />
<glyph unicode="W" horiz-adv-x="1788" d="M112 1530h277l100 -1037l26 -219l64 219l300 758l-30 279h268l88 -1037l19 -219l63 219l376 1037h282l-612 -1535h-308l-76 703l-16 169l-58 -169l-265 -703h-290z" />
<glyph unicode="X" horiz-adv-x="1201" d="M-79 0l561 801l-320 729h299l203 -545l353 545h305l-540 -786l347 -744l-307 -1l-225 576l-358 -575h-318z" />
<glyph unicode="Y" horiz-adv-x="1124" d="M83 1530h292l195 -608l28 -105l48 105l348 608h303l-597 -940l-80 -590h-271l80 590z" />
<glyph unicode="Z" horiz-adv-x="1158" d="M-27 89l777 1114l114 113l-639 -12l34 226h937l24 -86l-761 -1114l-104 -110l685 11l-37 -231h-1002z" />
<glyph unicode="[" horiz-adv-x="854" d="M155 -62q0 50 6 110q5 81 48 386.5t94 648t61 415.5q20 147 73.5 209t169.5 62q50 0 124 -11.5t123 -23.5l48 -12l-20 -131h-265l-218 -1634q22 0 132.5 -0.5t132.5 -0.5q-14 -95 -16 -129q-67 -19 -95 -26.5t-89.5 -16.5t-123.5 -9q-94 0 -139.5 40t-45.5 123z" />
<glyph unicode="\" horiz-adv-x="854" d="M16 1597h221l577 -1959h-222z" />
<glyph unicode="]" horiz-adv-x="854" d="M14 -166l20 131h265l218 1634q-22 0 -132.5 0.5t-132.5 0.5q14 95 16 129q67 19 95 26.5t89.5 16.5t123.5 9q94 0 139.5 -40t45.5 -123q0 -50 -6 -110q-5 -81 -48 -386.5t-94 -648t-61 -415.5q-20 -147 -73.5 -209t-169.5 -62q-50 0 -124 11.5t-123 23.5z" />
<glyph unicode="^" horiz-adv-x="1364" d="M151 510l521 1021h232l262 -1021h-221l-181 739l-388 -739h-225z" />
<glyph unicode="_" horiz-adv-x="1335" d="M-111 -363l20 176h1378l-20 -176h-1378z" />
<glyph unicode="`" horiz-adv-x="544" d="M19 1575l181 169l311 -426l-104 -84q-75 30 -212.5 151t-175.5 190z" />
<glyph unicode="a" horiz-adv-x="1207" d="M76 414q0 105 25 208.5t79 200t131 170.5t189.5 118.5t245.5 44.5q108 0 237 -39l149 39l-159 -1156h-246l14 217q-57 -98 -144.5 -165.5t-197.5 -67.5q-112 0 -186 57.5t-105.5 151.5t-31.5 221zM363 437q0 -257 116 -257q43 0 87 29t81.5 77.5t66.5 98t52 101.5l67 480 q-49 14 -115 14q-88 0 -158.5 -50.5t-112 -132t-63 -174.5t-21.5 -186z" />
<glyph unicode="b" horiz-adv-x="1227" d="M80 -8l222 1644h264l-70 -574l-27 -147q57 100 148 170.5t205 70.5q165 0 244 -118t79 -314q0 -105 -25.5 -208t-80.5 -199.5t-132.5 -170t-190.5 -118t-246 -44.5q-115 0 -244 41zM380 174q45 -13 117 -13q88 0 159.5 50.5t113.5 131t64.5 173.5t22.5 186 q0 256 -115 256q-46 0 -93.5 -31.5t-87 -82.5t-69.5 -102t-52 -102z" />
<glyph unicode="c" horiz-adv-x="931" d="M80 438q0 110 26.5 215.5t78 196t123 159t167.5 108t205 39.5q60 0 129 -10.5t110 -29.5l-68 -255q-35 30 -89 56.5t-104 26.5q-116 0 -206.5 -129.5t-90.5 -338.5q0 -154 42 -221.5t135 -67.5q62 0 127.5 35t121.5 92l77 -138q-22 -32 -55.5 -63t-81.5 -61.5t-114 -49 t-138 -18.5q-101 0 -178 35.5t-123.5 98.5t-70 143.5t-23.5 176.5z" />
<glyph unicode="d" horiz-adv-x="1218" d="M75 414q0 105 25.5 208.5t80.5 200t132.5 170.5t190.5 118.5t246 44.5q49 0 112 -10l67 490h270l-216 -1636h-247l15 230q-57 -102 -148 -174t-205 -72q-112 0 -186 57.5t-105.5 151.5t-31.5 221zM362 437q0 -255 116 -255q44 0 89.5 30t84 79t68.5 99.5t53 102.5l64 469 q-54 18 -115 18q-71 0 -131.5 -33.5t-102 -88.5t-70.5 -126.5t-42.5 -146t-13.5 -148.5z" />
<glyph unicode="e" horiz-adv-x="1074" d="M80 438q2 202 82.5 366t221.5 258t316 94q155 0 233 -69t78 -187q0 -91 -40.5 -168t-103 -129t-150.5 -93.5t-171 -65.5t-175 -40v-14q0 -208 177 -208q82 0 172.5 46.5t155.5 114.5l73 -141q-24 -34 -65 -69.5t-98.5 -70t-135 -56.5t-157.5 -22q-107 0 -189 38t-130 102 t-72 144q-23 76 -22 163v7zM371 563q74 4 157.5 42.5t148 111.5t64.5 157q0 59 -26 84.5t-76 25.5q-59 0 -109.5 -43t-83 -109t-52 -136t-23.5 -133z" />
<glyph unicode="f" horiz-adv-x="730" d="M129 0l130 954h-130l34 186h122l16 100q28 198 147.5 317t308.5 119q104 0 164 -26l-56 -199q-48 40 -121 40h-4q-63 -1 -105 -50.5t-57 -145.5l-24 -155h200l-20 -186h-203q-130 -949 -130 -954h-272z" />
<glyph unicode="g" horiz-adv-x="1213" d="M75 414q0 105 25.5 208.5t80.5 200t132.5 170.5t190.5 118.5t246 44.5q108 0 237 -39l152 39l-167 -1217q-15 -102 -57.5 -182t-99.5 -129.5t-130.5 -81.5t-144.5 -44.5t-148 -12.5q-68 0 -153 13t-117 27l51 210q39 -23 118.5 -47t153.5 -24q111 0 166.5 59.5 t78.5 175.5l55 316q-59 -99 -147.5 -167t-199.5 -68q-112 0 -186 57.5t-105.5 151.5t-31.5 221zM362 437q0 -255 116 -255q43 0 87.5 29t82.5 76.5t68 97.5t53 101l67 481q-51 13 -114 13q-71 0 -131.5 -33.5t-102 -88.5t-70.5 -126.5t-42.5 -146t-13.5 -148.5z" />
<glyph unicode="h" horiz-adv-x="1256" d="M83 0l214 1636h272l-64 -520l-35 -199q80 108 188.5 173.5t224.5 65.5q124 0 187 -69.5t63 -226.5q0 -56 -40 -347q-14 -98 -41.5 -284.5t-33.5 -228.5h-276q9 67 34.5 244.5t37.5 267.5q32 235 34 309v5q0 60 -22 82q-23 23 -71 23q-68 0 -155.5 -63t-148.5 -155 l-97 -713h-271z" />
<glyph unicode="i" horiz-adv-x="624" d="M102 0l156 1140h277l-157 -1140h-276zM293 1496q2 70 53 121t124 51q68 0 110 -41q40 -39 40 -94v-5q-2 -74 -53 -124.5t-132 -50.5q-59 0 -101 42q-41 40 -41 96v5z" />
<glyph unicode="j" horiz-adv-x="622" d="M-252 -485l70 146q15 -11 46 -11q37 0 68 12t53.5 31t41 52t30 64t22.5 79t17 85.5t14 93.5l147 1073h277l-156 -1138q-33 -244 -164 -383.5t-309 -139.5q-107 0 -157 36zM290 1496q2 70 53 121t124 51q68 0 110 -41q40 -39 40 -94v-5q-2 -74 -53 -124.5t-132 -50.5 q-59 0 -102 42q-40 40 -40 96v5z" />
<glyph unicode="k" horiz-adv-x="1134" d="M83 0l214 1636h272l-214 -1636h-272zM473 632h2l-2 1q82 46 146.5 113.5t125.5 164.5q83 114 120 229h270q-9 -111 -84 -228q-57 -101 -141 -180.5t-163 -120.5l345 -609h-318z" />
<glyph unicode="l" horiz-adv-x="625" d="M104 2l222 1634h277l-223 -1634h-276z" />
<glyph unicode="m" horiz-adv-x="1867" d="M80 2l155 1138h265l-18 -207q77 101 179.5 162t211.5 61q105 0 165.5 -52t75.5 -166q78 99 179 158.5t209 59.5q122 0 183.5 -69.5t61.5 -226.5q0 -69 -40 -347q0 -1 -74 -511h-276q12 86 37.5 265t34.5 245q32 235 34 309v5q0 60 -22 82q-23 23 -71 23q-58 0 -130 -50 t-130 -128q-9 -84 -31 -240q0 -1 -74 -511h-276q9 68 34.5 244.5t37.5 265.5q32 236 33 309v5q0 60 -22 82q-23 23 -71 23q-64 0 -146.5 -62t-140.5 -152l-98 -715h-276z" />
<glyph unicode="n" horiz-adv-x="1257" d="M80 2l155 1138h263l-16 -212q79 103 185.5 165.5t219.5 62.5q124 0 186.5 -69.5t62.5 -226.5q0 -69 -40 -347q0 -1 -74 -511h-276q9 68 34.5 244.5t37.5 265.5q32 236 33 309v5q1 60 -21 82q-22 23 -72 23q-68 0 -155.5 -64t-149.5 -156l-97 -709h-276z" />
<glyph unicode="o" horiz-adv-x="1158" d="M77 457v6q1 135 41 257q42 126 117.5 223t191.5 155t254 58q134 0 224.5 -61.5t131 -165t42.5 -245.5v-8q-1 -105 -25 -204q-26 -103 -76.5 -191.5t-121.5 -154.5t-168 -104t-208 -38q-134 0 -225.5 61.5t-133.5 165.5t-44 246zM356 438q2 -273 163 -273q71 0 126.5 49 t88 128.5t48.5 171.5q15 87 15 175v11q-1 140 -39 208t-119 68q-70 0 -126.5 -50t-90.5 -130q-33 -82 -50 -174q-16 -87 -16 -174v-10z" />
<glyph unicode="p" horiz-adv-x="1227" d="M12 -503l221 1643h251l-10 -210q58 96 146.5 161t198.5 65q85 0 148 -32t101 -90.5t56 -135t18 -170.5q0 -87 -18.5 -174t-54 -170.5t-93 -155.5t-130.5 -126.5t-170.5 -86t-209.5 -31.5q-52 0 -113 11l-68 -498h-273zM378 174q46 -13 116 -13q88 0 159.5 51t113.5 132 t64.5 174.5t22.5 186.5q0 253 -115 253q-58 0 -119.5 -52.5t-103 -117t-72.5 -134.5z" />
<glyph unicode="q" horiz-adv-x="1219" d="M75 414q0 105 25.5 208.5t80.5 200t132.5 170.5t190.5 118.5t246 44.5q109 0 235 -38l151 41l-220 -1658h-273l67 501l38 224q-57 -101 -147 -171.5t-203 -70.5q-112 0 -186 57.5t-105.5 151.5t-31.5 221zM362 437q0 -255 116 -255q42 0 86 28t81.5 74.5t67.5 95.5 t54 100l66 488q-51 12 -111 12q-71 0 -131.5 -33.5t-102 -88.5t-70.5 -126.5t-42.5 -146t-13.5 -148.5z" />
<glyph unicode="r" horiz-adv-x="846" d="M80 0l156 1140h265l-18 -216q41 89 127.5 160.5t193.5 71.5q50 0 66 -13l-54 -285q-24 20 -99 20q-68 0 -140 -50t-126 -140l-95 -688h-276z" />
<glyph unicode="s" horiz-adv-x="925" d="M50 48l47 226q37 -31 116 -61.5t151 -30.5q167 0 167 113q0 24 -8.5 45.5t-30.5 45t-37.5 38t-53.5 44.5t-55 45q-42 36 -69.5 64t-55 67.5t-41 86.5t-13.5 103q0 150 117.5 236t303.5 86q80 0 156.5 -13t105.5 -25l-38 -241q-24 27 -87 54.5t-140 27.5q-73 0 -116 -29 t-43 -81q0 -21 6.5 -40.5t12.5 -32.5t26 -33t30 -29t41 -34.5t44 -36.5q52 -42 84 -71.5t64.5 -70.5t47.5 -87.5t15 -100.5q0 -85 -34.5 -150t-95.5 -103t-137.5 -57t-166.5 -19q-96 0 -190 20t-123 44z" />
<glyph unicode="t" horiz-adv-x="790" d="M134 954l39 186h105l80 278h216l-37 -278h242l-23 -186h-244l-73 -548q-15 -113 -15 -138q0 -86 63 -86q34 0 97 30t97 60l39 -139q-57 -56 -161.5 -103.5t-210.5 -47.5q-96 0 -152.5 49t-56.5 148q0 48 17 168l78 607h-100z" />
<glyph unicode="u" horiz-adv-x="1233" d="M112 253v5q0 76 28 288q55 415 83 594h274q-69 -515 -79 -597q-23 -166 -23 -236q0 -62 26 -88t76 -26q67 0 145 65t137 160l98 722h276l-153 -1140h-250l13 205q-70 -99 -169 -162t-211 -63q-270 0 -271 273z" />
<glyph unicode="v" horiz-adv-x="1073" d="M98 1140h284l65 -723l12 -202l96 127q76 121 124 234t77 260q11 57 22 155q10 90 10 140v9h257q5 -56 5 -113v-33q-6 -160 -76 -329.5t-170.5 -308t-226.5 -260.5l-90 -103l-227 -12l-56 376z" />
<glyph unicode="w" horiz-adv-x="1713" d="M100 1140h290l65 -723l11 -207l97 132q170 273 218 525l-33 273h278l61 -723l12 -207l95 129q76 121 122.5 235.5t71.5 261.5q31 188 31 283v21h254q4 -45 4 -100v-37q-9 -240 -137.5 -476t-335.5 -434l-86 -100l-217 -12l-57 376l-13 107q-112 -222 -255 -368l-86 -103 l-225 -12l-56 376z" />
<glyph unicode="x" horiz-adv-x="1003" d="M-80 2l440 595l-278 543h321l136 -363l234 363h284l-423 -578l300 -560h-319l-158 381l-248 -381h-289z" />
<glyph unicode="y" horiz-adv-x="1095" d="M-144 -458l73 203q73 -46 147 -46q94 0 175 61t190 222h-164l-60 375l-112 783h284l79 -733l36 -312q83 156 111 244q79 154 117 302t55 351q3 33 5 148h256q3 -31 3 -79q0 -29 -1 -64q-12 -330 -199 -716q-112 -240 -259 -432q-101 -131 -130 -164q-124 -140 -268 -177 q-64 -17 -136 -17q-100 0 -202 51z" />
<glyph unicode="z" horiz-adv-x="975" d="M-37 52l567 773l111 104h-488l29 211h773l41 -48l-571 -787l-99 -91h533l-22 -214h-827z" />
<glyph unicode="{" horiz-adv-x="1024" d="M106 698l25 163q145 36 192 60q59 32 65 68l82 528q24 148 79 202.5t181 54.5q44 0 118 -13t126 -26l51 -13q-21 -122 -22 -132h-276l-95 -625q-6 -38 -28 -65t-65 -54q-13 -8 -56.5 -26t-80.5 -32l-38 -14q12 -7 45 -23.5t50.5 -25.5t39 -22.5t31.5 -24.5 q26 -27 36.5 -50.5t4.5 -58.5l-93 -612h275l-17 -126q-184 -62 -320 -62q-100 0 -141.5 38.5t-40.5 122.5l89 633q0 38 -52 72q-55 37 -165 63z" />
<glyph unicode="|" horiz-adv-x="854" d="M337 -186v1966h213v-1966h-213z" />
<glyph unicode="}" horiz-adv-x="1024" d="M48 -176q21 122 22 132h276l95 625q6 38 28 65t65 54q13 8 56.5 26t81.5 32l37 14q-12 7 -45 23.5t-50.5 25.5t-39 22.5t-31.5 24.5q-26 27 -36.5 50.5t-4.5 58.5l93 612h-275l17 126q184 62 320 62q100 0 141.5 -38.5t40.5 -122.5l-89 -633q0 -38 52 -72q55 -37 165 -63 l-25 -163q-145 -36 -192 -60q-59 -32 -65 -68l-82 -528q-24 -148 -79 -202.5t-181 -54.5q-44 0 -118 13t-125 26z" />
<glyph unicode="~" horiz-adv-x="1137" d="M104 867q25 79 123 147t204 68q48 0 92.5 -17.5t79 -43t66.5 -51t66.5 -43t67.5 -17.5q115 0 192 112l103 -106q-22 -85 -118 -152.5t-204 -67.5q-49 0 -93.5 18t-77.5 44t-64.5 52.5t-67 44.5t-72.5 18q-106 0 -187 -113z" />
<glyph />
<glyph unicode="&#xa1;" horiz-adv-x="686" d="M55 -434l233 1290h208l-146 -1290h-295zM274 1187q4 82 58.5 132.5t136.5 50.5q64 0 103 -38.5t35 -100.5q-5 -75 -59.5 -128t-133.5 -53q-75 0 -109 38.5t-31 98.5z" />
<glyph unicode="&#xa2;" horiz-adv-x="1067" d="M114 438q0 162 54.5 307.5t162.5 252.5t250 142l60 253h195l-58 -240q115 -9 175 -37l-68 -255q-35 30 -89 56.5t-104 26.5q-116 0 -206.5 -129.5t-90.5 -338.5q0 -154 42 -221.5t135 -67.5q62 0 127.5 35t121.5 92l77 -138q-44 -65 -130 -120.5t-203 -67.5l-42 -233 h-195l45 248q-130 41 -194.5 157.5t-64.5 277.5z" />
<glyph unicode="&#xa3;" horiz-adv-x="1397" d="M-35 96q4 69 86.5 124t168.5 55q65 59 90 212l41 245h-173l24 181h180l21 120q15 101 53.5 188.5t102.5 162.5t163.5 118t224.5 43q232 0 336 -100l-132 -198q-11 31 -70.5 71.5t-139.5 40.5q-214 0 -269 -337l-19 -109h308l-23 -181h-315l-19 -111q-24 -146 -52 -222.5 t-78 -146.5q71 -23 106.5 -33.5t111 -25.5t132.5 -15q269 0 269 173q0 38 -26.5 80.5t-55.5 58.5l183 144q68 -42 111.5 -122t43.5 -160q-3 -372 -470 -372q-108 0 -208.5 19t-211.5 52.5t-154 42.5q-40 -50 -102.5 -82t-119.5 -32q-58 0 -90 31t-28 85z" />
<glyph unicode="&#xa4;" horiz-adv-x="1540" d="M215 1135l127 128l203 -204q109 69 237 69q136 0 247 -76l199 198l127 -128l-200 -200q67 -107 67 -232q0 -130 -72 -240l203 -202l-128 -127l-202 202q-109 -71 -241 -71q-127 0 -234 66l-202 -202l-128 127l200 200q-76 111 -76 247q0 134 74 244zM533 690 q0 -107 73 -183.5t176 -76.5t176 76.5t73 183.5q0 108 -73 184.5t-176 76.5t-176 -76.5t-73 -184.5z" />
<glyph unicode="&#xa5;" horiz-adv-x="1476" d="M168 350l18 156h408l25 200h-407l18 156h331l-287 668h274l211 -557l34 -110l56 114l322 553h308l-479 -668h330l-18 -156h-417l-25 -200h415l-17 -156h-418l-45 -350h-272l42 350h-407z" />
<glyph unicode="&#xa6;" horiz-adv-x="854" d="M337 -186v879h213v-879h-213zM337 901v879h213v-879h-213z" />
<glyph unicode="&#xa7;" horiz-adv-x="1194" d="M99 -69l56 201q39 -48 149 -81.5t196 -33.5q275 0 275 154q1 54 -56.5 98.5t-192.5 105.5q-370 171 -374 447q-3 164 178 267q-83 98 -84 230q-2 155 135.5 254.5t382.5 99.5q128 0 222.5 -33t139.5 -72l-65 -186q-38 50 -131.5 73t-170.5 23q-113 0 -178.5 -38.5 t-69.5 -98.5q-1 -27 3.5 -49.5t19 -42t30 -34t45 -32.5t54.5 -31t69 -35q9 -4 13.5 -6.5t12.5 -6.5l14 -7q350 -174 354 -429q1 -180 -150 -293q59 -77 60 -175q2 -172 -143.5 -279.5t-400.5 -107.5q-121 0 -236.5 40t-156.5 78zM401 859q-4 -90 53 -147t219 -142 q139 -67 162 -80q46 52 47 132q1 76 -50.5 135.5t-202.5 135.5q-118 57 -173 91q-52 -52 -55 -125z" />
<glyph unicode="&#xa8;" horiz-adv-x="813" d="M27 1507q2 70 48.5 119.5t115.5 49.5q62 0 101.5 -41.5t37.5 -96.5q-2 -74 -48.5 -124.5t-122.5 -50.5q-54 0 -94 44t-38 100zM474 1507q2 70 48 119.5t115 49.5q62 0 102 -41.5t38 -96.5q-2 -73 -49 -124t-123 -51q-54 0 -93.5 44t-37.5 100z" />
<glyph unicode="&#xa9;" horiz-adv-x="2110" d="M185 963q0 120 31 233.5t86.5 209.5t135.5 177t175.5 137t208.5 87.5t233 31.5q179 0 340.5 -69t277.5 -186t184.5 -279.5t68.5 -341.5q0 -180 -68.5 -342.5t-184.5 -280.5t-277.5 -187.5t-340.5 -69.5t-340.5 69.5t-277.5 187.5t-184 280.5t-68 342.5zM327 963 q0 -153 55.5 -291.5t151 -239.5t231.5 -160.5t290 -59.5t290 59.5t231.5 160.5t151 239.5t55.5 291.5t-55.5 291t-151 239t-231.5 160.5t-290 59.5t-290 -59.5t-231.5 -160.5t-151 -239t-55.5 -291zM610 955q0 106 32 196.5t93.5 158t156.5 105.5t214 38q149 0 246 -56 l-35 -184q-86 59 -219 59q-121 0 -193 -81t-72 -209q-1 -159 70 -240.5t191 -81.5q136 0 236 62l44 -148q-50 -43 -136 -71t-182 -28q-133 0 -236.5 67.5t-156 176t-53.5 236.5z" />
<glyph unicode="&#xaa;" horiz-adv-x="909" d="M93 1019q0 105 42 206t114 178.5t176 125.5t220 48q95 0 187 -30l130 27l-153 -839h-193l5 136q-127 -136 -277 -136q-121 0 -186 76t-65 208zM330 1043q0 -78 24 -116t85 -38q80 0 184 124l81 423q-34 18 -74 18q-72 0 -132 -41.5t-95 -105t-54 -132.5t-19 -132z" />
<glyph unicode="&#xab;" horiz-adv-x="1937" d="M209 530l27 175l717 396l48 -160l-470 -331l389 -326l-90 -142zM950 530l27 175l717 396l48 -160l-470 -331l389 -326l-90 -142z" />
<glyph unicode="&#xac;" horiz-adv-x="1370" d="M207 664l21 189h960l-62 -531h-217l41 342h-743z" />
<glyph unicode="&#xad;" horiz-adv-x="1706" />
<glyph unicode="&#xae;" horiz-adv-x="2110" d="M183 963q0 239 116 440.5t316.5 318.5t439.5 117q143 0 277 -44t241 -125t187.5 -188.5t124 -241.5t43.5 -277q0 -180 -68.5 -342.5t-185 -280.5t-278.5 -187.5t-341 -69.5t-340.5 69.5t-278 187.5t-185 280.5t-68.5 342.5zM325 963q0 -153 56 -291.5t152 -239.5 t232.5 -160.5t289.5 -59.5t289.5 59.5t232.5 160.5t152 239.5t56 291.5t-56 291t-152 238.5t-232.5 160t-289.5 59.5t-289.5 -59.5t-232.5 -160t-152 -238.5t-56 -291zM719 483v962h87q35 0 118 3.5t143 3.5q179 0 271 -76.5t92 -198.5q0 -252 -193 -310q30 -19 56.5 -52 t41.5 -60.5t38 -73.5t36 -68q29 -50 85 -130l-230 1q-22 26 -64 112q-7 15 -24 54t-28.5 62t-30 53t-41 49t-48.5 28q-20 -1 -108 -1v-358h-201zM920 989q38 -5 125 -5q90 0 135 40.5t45 126.5q0 77 -45 116t-155 36q-68 0 -105 -11v-303z" />
<glyph unicode="&#xaf;" horiz-adv-x="617" d="M34 1415l11 179h543l-11 -179h-543z" />
<glyph unicode="&#xb0;" horiz-adv-x="928" d="M175 1277q2 145 104 242.5t254 97.5q146 0 244.5 -99.5t95.5 -240.5q-2 -147 -104.5 -244.5t-256.5 -97.5q-145 0 -242 100t-95 242zM347 1277q-2 -77 49 -132.5t124 -55.5q78 0 129 53.5t52 134.5q2 78 -49 132.5t-125 54.5q-77 0 -127.5 -53t-52.5 -134z" />
<glyph unicode="&#xb1;" horiz-adv-x="1361" d="M168 15l17 179h887l-17 -179h-887zM212 674l26 210h237l128 -11l12 152l28 255h225l-26 -255l-27 -151l106 10h265l-26 -210h-265l-104 7l-9 -150l-30 -258h-226l30 258l25 150l-132 -7h-237z" />
<glyph unicode="&#xb2;" horiz-adv-x="1163" d="M161 727q71 37 168 103t201.5 150t176 176t71.5 161q0 136 -153 136q-175 0 -295 -118l-91 119q51 70 172 131t259 62q175 1 275.5 -78t100.5 -196q0 -164 -135 -318t-370 -290l504 29l-12 -202h-813z" />
<glyph unicode="&#xb3;" horiz-adv-x="1071" d="M118 586l30 149q47 -26 117.5 -41.5t135.5 -13.5q72 1 135.5 19t110.5 65t48 115q2 61 -37 96t-105 37l-199 -47l28 177q144 33 219.5 82t75.5 129q0 46 -34.5 76t-105.5 29q-133 -1 -248 -81l-61 146q175 121 400 121q85 0 149.5 -20t100.5 -54t53.5 -72t16.5 -80 q-1 -104 -61 -181t-164 -116q67 -5 115.5 -29.5t72.5 -62t34.5 -75t9.5 -77.5q-2 -115 -76.5 -200.5t-188 -126.5t-246.5 -41q-82 0 -176.5 21t-149.5 56z" />
<glyph unicode="&#xb4;" horiz-adv-x="562" d="M34 1319l321 425l180 -169q-30 -57 -171.5 -183t-225.5 -158z" />
<glyph unicode="&#xb5;" horiz-adv-x="1364" d="M86 -372l173 1198q7 43 1 78t-26 35q-41 0 -91 -50l-56 140q15 17 49 42.5t104 54.5t139 29q83 0 133 -51t37 -151q-3 -23 -21 -163.5t-35 -270t-17 -128.5q-12 -105 25.5 -148.5t102.5 -43.5q58 0 128 53.5t95 119.5l101 768h273l-112 -882q-5 -37 5.5 -60t27.5 -23 q53 0 114 72l70 -120q-24 -26 -41 -42t-54.5 -44.5t-85.5 -43.5t-103 -15q-155 0 -175 140q-56 -70 -116 -105t-154 -35q-42 0 -95 19.5t-72 56.5l-64 -430h-260z" />
<glyph unicode="&#xb6;" horiz-adv-x="1364" d="M121 1095q-2 104 30 188.5t101 150t187 101.5t277 36q88 0 209 -9.5t175 -9.5h304l-18 -147l-167 -33q-13 -106 -88.5 -686t-88.5 -686h-235l173 1368h-194l-175 -1368h-234l102 726q-160 4 -257.5 104.5t-100.5 264.5z" />
<glyph unicode="&#xb7;" horiz-adv-x="686" d="M179 753q0 76 50.5 131.5t131.5 55.5q72 0 106 -36.5t34 -93.5q0 -87 -50.5 -138.5t-134.5 -51.5q-61 0 -99 37t-38 96z" />
<glyph unicode="&#xb8;" horiz-adv-x="482" d="M-30 -436l31 177q28 -15 75 -15q80 0 124.5 32.5t46.5 119.5q4 111 -6 152l89 4l71 -4q21 -29 37 -98.5t16 -133.5q0 -132 -74.5 -199t-214.5 -67q-43 0 -111 10.5t-84 21.5z" />
<glyph unicode="&#xb9;" horiz-adv-x="1020" d="M280 1466q100 25 237.5 85.5t178.5 93.5l119 -21l-141 -1033h-245l107 787l-246 -52z" />
<glyph unicode="&#xba;" horiz-adv-x="900" d="M99 1088q0 116 42 213t111 159t154.5 96t175.5 33q158 -1 254.5 -100t96.5 -265q0 -119 -40.5 -215.5t-109 -158t-155.5 -94t-183 -31.5q-145 1 -245.5 100t-100.5 263zM336 1100q0 -105 33.5 -166.5t94.5 -62.5q55 0 97.5 23.5t67 59t40 84.5t20.5 92.5t5 90.5 q0 229 -132 229q-62 0 -108.5 -36.5t-70.5 -92.5t-35.5 -112t-11.5 -109z" />
<glyph unicode="&#xbb;" horiz-adv-x="1937" d="M215 297l470 331l-389 326l90 142l621 -388l-27 -175l-717 -396zM956 297l470 331l-389 326l90 142l621 -388l-27 -175l-717 -396z" />
<glyph unicode="&#xbc;" horiz-adv-x="2560" d="M310 1466q100 25 237.5 85.5t178.5 93.5l119 -21l-141 -1033h-245l107 787l-246 -52zM717 0l681 1530h209l-681 -1530h-209zM1291 223l578 888l58 1l173 -104l-468 -639l-73 -89l318 12l35 251l235 23l-34 -265l227 9l-22 -199h-230l-40 -318h-240l44 318h-512z" />
<glyph unicode="&#xbd;" horiz-adv-x="2560" d="M310 1466q100 25 237.5 85.5t178.5 93.5l119 -21l-141 -1033h-245l107 787l-246 -52zM716 0l681 1530h209l-681 -1530h-209zM1395 12q71 37 168 103t201.5 150t176 176t71.5 161q0 136 -153 136q-175 0 -295 -118l-91 119q51 70 172 131t259 62q175 1 275.5 -78 t100.5 -196q0 -164 -135 -318t-370 -290l504 29l-12 -202h-813z" />
<glyph unicode="&#xbe;" horiz-adv-x="2560" d="M90 614l30 149q47 -26 117.5 -41.5t135.5 -13.5q72 1 135.5 19t110.5 65t48 115q2 61 -37 96t-105 37l-199 -47l28 177q144 33 219.5 82t75.5 129q0 46 -34.5 76t-105.5 29q-133 -1 -248 -81l-61 146q175 121 400 121q85 0 149.5 -20t100.5 -54t53.5 -72t16.5 -80 q-1 -104 -61 -181t-164 -116q67 -5 115.5 -29.5t72.5 -62t34.5 -75t9.5 -77.5q-2 -115 -76.5 -200.5t-188 -126.5t-246.5 -41q-82 0 -176.5 21t-149.5 56zM716 0l681 1530h209l-681 -1530h-209zM1291 223l578 888l58 1l173 -104l-468 -639l-73 -89l318 12l35 251l235 23 l-34 -265l227 9l-22 -199h-230l-40 -318h-240l44 318h-512z" />
<glyph unicode="&#xbf;" horiz-adv-x="1048" d="M67 77q0 77 19.5 141.5t52 110t75 84t89.5 66.5t94.5 53.5t90 50t75 50t52 58.5t19.5 72q0 24 -9 52t-20.5 53.5t-13.5 34.5l147 58l17 -1q42 -32 74.5 -100t32.5 -135q0 -89 -61 -157.5t-210 -145.5q-225 -107 -257 -200q-16 -55 -16 -111q0 -115 92 -185.5t227 -70.5 q115 0 212 28l-42 -185q-24 -22 -86 -37.5t-123 -15.5q-111 0 -200.5 23t-150.5 62.5t-102 95t-59.5 118t-18.5 133.5zM456 1261q0 86 50.5 137.5t134.5 51.5q61 0 99 -37t38 -95q0 -77 -50.5 -132.5t-131.5 -55.5q-72 0 -106 36.5t-34 94.5z" />
<glyph unicode="&#xc0;" horiz-adv-x="1305" d="M-100 -1l744 1531h334l257 -1530l-277 -1l-48 342h-561l-148 -341zM434 537h448l-95 682l-10 118l-47 -121zM476 1850l167 157l277 -342l-108 -93q-78 29 -187 116t-149 162z" />
<glyph unicode="&#xc1;" horiz-adv-x="1305" d="M-100 -1l744 1531h334l257 -1530l-277 -1l-48 342h-561l-148 -341zM434 537h448l-95 682l-10 118l-47 -121zM736 1665l277 342l167 -157q-40 -75 -149 -162t-187 -116z" />
<glyph unicode="&#xc2;" horiz-adv-x="1305" d="M-100 -1l744 1531h334l257 -1530l-277 -1l-48 342h-561l-148 -341zM434 537h448l-95 682l-10 118l-47 -121zM459 1661l349 346h179l201 -340l-119 -73l-197 200l-300 -205z" />
<glyph unicode="&#xc3;" horiz-adv-x="1305" d="M-100 -1l744 1531h334l257 -1530l-277 -1l-48 342h-561l-148 -341zM434 537h448l-95 682l-10 118l-47 -121zM435 1792q34 68 123.5 125.5t168.5 57.5q45 0 82.5 -14.5t62.5 -35.5t47.5 -42t48 -35.5t52.5 -14.5q14 0 27.5 3t24 6.5t22.5 12.5t18.5 14t18 18t15.5 17.5 t16.5 20t14.5 18.5l102 -117q-28 -75 -113.5 -135.5t-170.5 -60.5q-50 0 -89 14.5t-64.5 35t-48 41.5t-50.5 35.5t-61 15.5q-31 0 -61.5 -16t-45 -29.5t-43.5 -44.5z" />
<glyph unicode="&#xc4;" horiz-adv-x="1305" d="M-100 -1l744 1531h334l257 -1530l-277 -1l-48 342h-561l-148 -341zM434 537h448l-95 682l-10 118l-47 -121zM456 1807q2 70 50 120t114 50q62 0 101 -41t37 -97q-2 -73 -48.5 -124t-121.5 -51q-54 0 -94 44t-38 99zM902 1807q1 70 49 120t114 50q62 0 102 -41.5t38 -96.5 q-2 -73 -49 -124t-123 -51q-53 0 -92.5 43.5t-38.5 99.5z" />
<glyph unicode="&#xc5;" horiz-adv-x="1305" d="M-100 -1l729 1501q-137 60 -137 218q0 75 34.5 133t91 90.5t118.5 49t125 16.5q132 0 211.5 -65t79.5 -184q0 -91 -46 -154.5t-124 -98.5l253 -1505l-277 -1l-48 342h-561l-148 -341zM434 537h448l-95 682l-10 118l-47 -121zM660 1727q0 -56 43.5 -95.5t102.5 -39.5 q177 0 177 161q0 57 -41 94.5t-102 37.5q-34 0 -64 -8t-57 -25t-43 -49t-16 -76z" />
<glyph unicode="&#xc6;" horiz-adv-x="1874" d="M-125 0l767 1368l-267 27l21 135h1444l-22 -216l-571 5l-58 -432l429 6l-24 -221l-432 12l-64 -474l667 13l-26 -223h-945l48 356h-475l-189 -356h-303zM473 557h396l104 771l-86 8z" />
<glyph unicode="&#xc7;" horiz-adv-x="1173" d="M101 626q-2 193 55 363.5t157 293t243 193t306 70.5q143 0 285 -52l54 -16l-86 -250q-115 86 -275 86q-99 0 -179.5 -42.5t-131.5 -110.5t-85 -158.5t-48 -181.5t-13 -184q2 -204 76.5 -317t229.5 -113q103 0 196 32.5t137 66.5l38 -208q-39 -30 -128 -64t-211 -45 q32 -86 32 -189q0 -132 -74.5 -199t-214.5 -67q-43 0 -111 10.5t-84 21.5l31 177q28 -15 75 -15q80 0 124.5 32.5t46.5 119.5q2 65 -1 109q-97 12 -174 54.5t-126 103t-82 141t-47 163.5t-15 175z" />
<glyph unicode="&#xc8;" horiz-adv-x="1171" d="M91 0l206 1530h841l-22 -216l-572 5l-57 -432l428 6l-24 -221l-432 12l-63 -474l666 13l-25 -223h-946zM399 1850l167 157l277 -342l-108 -93q-78 29 -187 116t-149 162z" />
<glyph unicode="&#xc9;" horiz-adv-x="1171" d="M91 0l206 1530h841l-22 -216l-572 5l-57 -432l428 6l-24 -221l-432 12l-63 -474l666 13l-25 -223h-946zM659 1665l277 342l167 -157q-40 -75 -149 -162t-187 -116z" />
<glyph unicode="&#xca;" horiz-adv-x="1171" d="M91 0l206 1530h841l-22 -216l-572 5l-57 -432l428 6l-24 -221l-432 12l-63 -474l666 13l-25 -223h-946zM382 1661l349 346h179l201 -340l-119 -73l-197 200l-300 -205z" />
<glyph unicode="&#xcb;" horiz-adv-x="1171" d="M91 0l206 1530h841l-22 -216l-572 5l-57 -432l428 6l-24 -221l-432 12l-63 -474l666 13l-25 -223h-946zM379 1807q2 70 50 120t114 50q62 0 101 -41t37 -97q-2 -73 -48.5 -124t-121.5 -51q-54 0 -94 44t-38 99zM825 1807q1 70 49 120t114 50q62 0 102 -41.5t38 -96.5 q-2 -73 -49 -124t-123 -51q-53 0 -92.5 43.5t-38.5 99.5z" />
<glyph unicode="&#xcc;" horiz-adv-x="643" d="M113 0l206 1530h276l-206 -1530h-276zM135 1850l167 157l277 -342l-108 -93q-78 29 -187 116t-149 162z" />
<glyph unicode="&#xcd;" horiz-adv-x="643" d="M113 0l206 1530h276l-206 -1530h-276zM395 1665l277 342l167 -157q-40 -75 -149 -162t-187 -116z" />
<glyph unicode="&#xce;" horiz-adv-x="643" d="M113 0l206 1530h276l-206 -1530h-276zM118 1661l349 346h179l201 -340l-119 -73l-197 200l-300 -205z" />
<glyph unicode="&#xcf;" horiz-adv-x="643" d="M113 0l206 1530h276l-206 -1530h-276zM115 1807q2 70 50 120t114 50q62 0 101 -41t37 -97q-2 -73 -48.5 -124t-121.5 -51q-54 0 -94 44t-38 99zM561 1807q1 70 49 120t114 50q62 0 102 -41.5t38 -96.5q-2 -73 -49 -124t-123 -51q-53 0 -92.5 43.5t-38.5 99.5z" />
<glyph unicode="&#xd0;" horiz-adv-x="1408" d="M36 698l20 190h160l87 643h139q43 0 168.5 8t173.5 8q152 0 264.5 -44.5t180 -128t100.5 -194t34 -252.5q2 -154 -31.5 -295t-102 -260t-164.5 -206t-228 -135.5t-285 -46.5q-52 0 -129 7q-94 7 -180 9h-146l94 697h-155zM402 215q83 -28 196 -25q121 2 215.5 64.5 t151.5 167t85.5 232t27.5 269.5q-1 161 -40 253t-115 130t-205 38q-90 0 -167 -17l-59 -439h339l-21 -190h-343z" />
<glyph unicode="&#xd1;" horiz-adv-x="1456" d="M97 0l206 1530h257l398 -927l71 -233l16 254l110 906h265l-206 -1530h-245l-402 954l-76 254l-12 -287l-120 -921h-262zM493 1792q34 68 123.5 125.5t168.5 57.5q45 0 82.5 -14.5t62.5 -35.5t47.5 -42t48 -35.5t52.5 -14.5q14 0 27.5 3t24 6.5t22.5 12.5t18.5 14t18 18 t15.5 17.5t16.5 20t14.5 18.5l102 -117q-28 -75 -113.5 -135.5t-170.5 -60.5q-50 0 -89 14.5t-64.5 35t-48 41.5t-50.5 35.5t-61 15.5q-31 0 -61.5 -16t-45 -29.5t-43.5 -44.5z" />
<glyph unicode="&#xd2;" horiz-adv-x="1386" d="M87 594q-2 262 87.5 478.5t258.5 345t385 128.5q166 0 284.5 -84.5t174.5 -220.5t58 -307q1 -195 -50 -368.5t-144 -302t-231 -204t-301 -75.5q-127 0 -227 48t-163.5 132t-97 193.5t-34.5 236.5zM372 622q3 -228 68 -328.5t199 -100.5q92 0 171 62t131 163t81 229 t28 262q-2 227 -67 326.5t-200 99.5q-92 0 -171 -63t-131 -165t-81 -229t-28 -256zM516 1850l167 157l277 -342l-108 -93q-78 29 -187 116t-149 162z" />
<glyph unicode="&#xd3;" horiz-adv-x="1386" d="M87 594q-2 262 87.5 478.5t258.5 345t385 128.5q166 0 284.5 -84.5t174.5 -220.5t58 -307q1 -195 -50 -368.5t-144 -302t-231 -204t-301 -75.5q-127 0 -227 48t-163.5 132t-97 193.5t-34.5 236.5zM372 622q3 -228 68 -328.5t199 -100.5q92 0 171 62t131 163t81 229 t28 262q-2 227 -67 326.5t-200 99.5q-92 0 -171 -63t-131 -165t-81 -229t-28 -256zM776 1665l277 342l167 -157q-40 -75 -149 -162t-187 -116z" />
<glyph unicode="&#xd4;" horiz-adv-x="1386" d="M87 594q-2 262 87.5 478.5t258.5 345t385 128.5q166 0 284.5 -84.5t174.5 -220.5t58 -307q1 -195 -50 -368.5t-144 -302t-231 -204t-301 -75.5q-127 0 -227 48t-163.5 132t-97 193.5t-34.5 236.5zM372 622q3 -228 68 -328.5t199 -100.5q92 0 171 62t131 163t81 229 t28 262q-2 227 -67 326.5t-200 99.5q-92 0 -171 -63t-131 -165t-81 -229t-28 -256zM498 1661l349 346h179l201 -340l-119 -73l-197 200l-300 -205z" />
<glyph unicode="&#xd5;" horiz-adv-x="1386" d="M87 594q-2 262 87.5 478.5t258.5 345t385 128.5q166 0 284.5 -84.5t174.5 -220.5t58 -307q1 -195 -50 -368.5t-144 -302t-231 -204t-301 -75.5q-127 0 -227 48t-163.5 132t-97 193.5t-34.5 236.5zM372 622q3 -228 68 -328.5t199 -100.5q92 0 171 62t131 163t81 229 t28 262q-2 227 -67 326.5t-200 99.5q-92 0 -171 -63t-131 -165t-81 -229t-28 -256zM474 1792q34 68 123.5 125.5t168.5 57.5q45 0 82.5 -14.5t62.5 -35.5t47.5 -42t48 -35.5t52.5 -14.5q14 0 27.5 3t24 6.5t22.5 12.5t18.5 14t18 18t15.5 17.5t16.5 20t14.5 18.5l102 -117 q-28 -75 -113.5 -135.5t-170.5 -60.5q-50 0 -89 14.5t-64.5 35t-48 41.5t-50.5 35.5t-61 15.5q-31 0 -61.5 -16t-45 -29.5t-43.5 -44.5z" />
<glyph unicode="&#xd6;" horiz-adv-x="1386" d="M87 594q-2 262 87.5 478.5t258.5 345t385 128.5q166 0 284.5 -84.5t174.5 -220.5t58 -307q1 -195 -50 -368.5t-144 -302t-231 -204t-301 -75.5q-127 0 -227 48t-163.5 132t-97 193.5t-34.5 236.5zM372 622q3 -228 68 -328.5t199 -100.5q92 0 171 62t131 163t81 229 t28 262q-2 227 -67 326.5t-200 99.5q-92 0 -171 -63t-131 -165t-81 -229t-28 -256zM495 1807q2 70 50 120t114 50q62 0 101 -41t37 -97q-2 -73 -48.5 -124t-121.5 -51q-54 0 -94 44t-38 99zM941 1807q1 70 49 120t114 50q62 0 102 -41.5t38 -96.5q-2 -73 -49 -124t-123 -51 q-53 0 -92.5 43.5t-38.5 99.5z" />
<glyph unicode="&#xd7;" horiz-adv-x="1384" d="M199 446l384 332l-307 332l170 154l286 -356l374 356l138 -165l-388 -332l311 -332l-171 -154l-290 356l-370 -355z" />
<glyph unicode="&#xd8;" horiz-adv-x="1386" d="M87 595q-2 262 87.5 478.5t258.5 345t385 128.5q156 0 275 -78l125 201l89 -49l-136 -217q80 -83 121 -204.5t43 -264.5q1 -195 -50 -368.5t-144 -302t-231 -204t-301 -75.5q-168 0 -291 85l-130 -202l-89 49l144 220q-154 168 -156 458zM372 623q1 -160 34 -255l546 906 q-61 62 -169 62q-92 0 -171 -63t-131 -165t-81 -229t-28 -256zM460 267q63 -73 179 -73q92 0 171 62t131 163t81 229t28 262q-1 168 -39 267z" />
<glyph unicode="&#xd9;" horiz-adv-x="1402" d="M131 430q-1 61 13 165l125 935h276l-120 -895q-12 -97 -12 -192q2 -128 60.5 -185.5t179.5 -57.5q144 0 223.5 99.5t112.5 339.5l119 891h273l-122 -918q-46 -337 -200.5 -482.5t-446.5 -145.5q-238 0 -358.5 117t-122.5 329zM499 1850l167 157l277 -342l-108 -93 q-78 29 -187 116t-149 162z" />
<glyph unicode="&#xda;" horiz-adv-x="1402" d="M131 430q-1 61 13 165l125 935h276l-120 -895q-12 -97 -12 -192q2 -128 60.5 -185.5t179.5 -57.5q144 0 223.5 99.5t112.5 339.5l119 891h273l-122 -918q-46 -337 -200.5 -482.5t-446.5 -145.5q-238 0 -358.5 117t-122.5 329zM759 1665l277 342l167 -157 q-40 -75 -149 -162t-187 -116z" />
<glyph unicode="&#xdb;" horiz-adv-x="1402" d="M131 430q-1 61 13 165l125 935h276l-120 -895q-12 -97 -12 -192q2 -128 60.5 -185.5t179.5 -57.5q144 0 223.5 99.5t112.5 339.5l119 891h273l-122 -918q-46 -337 -200.5 -482.5t-446.5 -145.5q-238 0 -358.5 117t-122.5 329zM482 1661l349 346h179l201 -340l-119 -73 l-197 200l-300 -205z" />
<glyph unicode="&#xdc;" horiz-adv-x="1402" d="M131 430q-1 61 13 165l125 935h276l-120 -895q-12 -97 -12 -192q2 -128 60.5 -185.5t179.5 -57.5q144 0 223.5 99.5t112.5 339.5l119 891h273l-122 -918q-46 -337 -200.5 -482.5t-446.5 -145.5q-238 0 -358.5 117t-122.5 329zM479 1807q2 70 50 120t114 50q62 0 101 -41 t37 -97q-2 -73 -48.5 -124t-121.5 -51q-54 0 -94 44t-38 99zM925 1807q1 70 49 120t114 50q62 0 102 -41.5t38 -96.5q-2 -73 -49 -124t-123 -51q-53 0 -92.5 43.5t-38.5 99.5z" />
<glyph unicode="&#xdd;" horiz-adv-x="1130" d="M89 1530h292l195 -608l28 -105l48 105l348 608h303l-597 -940l-80 -590h-271l80 590zM622 1665l277 342l167 -157q-40 -75 -149 -162t-187 -116z" />
<glyph unicode="&#xde;" horiz-adv-x="1258" d="M93 0l204 1530h279l-33 -246q95 9 173 9q240 0 368 -102.5t129 -305.5q2 -180 -74 -320.5t-222 -220.5t-339 -80q-74 0 -169 11l-36 -275h-280zM437 487q52 -14 147 -12q342 1 355 386q5 115 -60 174.5t-211 59.5q-87 0 -151 -13h-1z" />
<glyph unicode="&#xdf;" horiz-adv-x="1255" d="M71 2l121 927q17 125 49 225t70.5 168t90 117.5t100 77.5t109 44.5t109 21t106.5 4.5q164 0 264 -77.5t100 -219.5q0 -68 -18 -124.5t-45 -92.5t-59 -70t-59 -58.5t-45 -56t-18 -64.5q0 -32 23.5 -72t77.5 -113q37 -51 60 -90t44 -101.5t21 -125.5q0 -157 -112.5 -247.5 t-311.5 -90.5q-83 0 -154 14t-107 33l25 226q26 -28 84.5 -52.5t111.5 -23.5q96 1 141 33t45 110q0 35 -18 76.5t-32.5 63t-45.5 63.5q-124 161 -124 262q0 64 29.5 112.5t87.5 109.5q66 64 100 124t34 134q0 59 -40.5 98t-112.5 39q-57 0 -103.5 -25.5t-88.5 -85 t-74 -166.5t-51 -260l-113 -867h-271z" />
<glyph unicode="&#xe0;" horiz-adv-x="1207" d="M76 414q0 105 25 208.5t79 200t131 170.5t189.5 118.5t245.5 44.5q108 0 237 -39l149 39l-159 -1156h-246l14 217q-57 -98 -144.5 -165.5t-197.5 -67.5q-112 0 -186 57.5t-105.5 151.5t-31.5 221zM337 1575l181 169l311 -426l-104 -84q-75 30 -212.5 151t-175.5 190z M363 437q0 -257 116 -257q43 0 87 29t81.5 77.5t66.5 98t52 101.5l67 480q-49 14 -115 14q-88 0 -158.5 -50.5t-112 -132t-63 -174.5t-21.5 -186z" />
<glyph unicode="&#xe1;" horiz-adv-x="1207" d="M76 414q0 105 25 208.5t79 200t131 170.5t189.5 118.5t245.5 44.5q108 0 237 -39l149 39l-159 -1156h-246l14 217q-57 -98 -144.5 -165.5t-197.5 -67.5q-112 0 -186 57.5t-105.5 151.5t-31.5 221zM363 437q0 -257 116 -257q43 0 87 29t81.5 77.5t66.5 98t52 101.5l67 480 q-49 14 -115 14q-88 0 -158.5 -50.5t-112 -132t-63 -174.5t-21.5 -186zM631 1319l321 425l180 -169q-30 -57 -171.5 -183t-225.5 -158z" />
<glyph unicode="&#xe2;" horiz-adv-x="1207" d="M76 414q0 105 25 208.5t79 200t131 170.5t189.5 118.5t245.5 44.5q108 0 237 -39l149 39l-159 -1156h-246l14 217q-57 -98 -144.5 -165.5t-197.5 -67.5q-112 0 -186 57.5t-105.5 151.5t-31.5 221zM363 437q0 -257 116 -257q43 0 87 29t81.5 77.5t66.5 98t52 101.5l67 480 q-49 14 -115 14q-88 0 -158.5 -50.5t-112 -132t-63 -174.5t-21.5 -186zM383 1286l349 374h179l201 -374l-124 -68l-196 219l-301 -223z" />
<glyph unicode="&#xe3;" horiz-adv-x="1207" d="M76 414q0 105 25 208.5t79 200t131 170.5t189.5 118.5t245.5 44.5q108 0 237 -39l149 39l-159 -1156h-246l14 217q-57 -98 -144.5 -165.5t-197.5 -67.5q-112 0 -186 57.5t-105.5 151.5t-31.5 221zM344 1491q35 68 124 125.5t168 57.5q45 0 82.5 -15t62.5 -37t47.5 -43.5 t48 -36.5t52.5 -15q16 0 30.5 2.5t28.5 11t22.5 13t22.5 19.5t18 19.5t18.5 23.5t16.5 21l102 -117q-28 -75 -113.5 -135.5t-170.5 -60.5q-50 0 -89 15t-64 36.5t-47.5 43t-50.5 36.5t-61 16q-31 0 -62 -16t-45.5 -29.5t-43.5 -44.5zM363 437q0 -257 116 -257q43 0 87 29 t81.5 77.5t66.5 98t52 101.5l67 480q-49 14 -115 14q-88 0 -158.5 -50.5t-112 -132t-63 -174.5t-21.5 -186z" />
<glyph unicode="&#xe4;" horiz-adv-x="1207" d="M76 414q0 105 25 208.5t79 200t131 170.5t189.5 118.5t245.5 44.5q108 0 237 -39l149 39l-159 -1156h-246l14 217q-57 -98 -144.5 -165.5t-197.5 -67.5q-112 0 -186 57.5t-105.5 151.5t-31.5 221zM363 437q0 -257 116 -257q43 0 87 29t81.5 77.5t66.5 98t52 101.5l67 480 q-49 14 -115 14q-88 0 -158.5 -50.5t-112 -132t-63 -174.5t-21.5 -186zM402 1507q2 70 48.5 119.5t115.5 49.5q62 0 101.5 -41.5t37.5 -96.5q-2 -74 -48.5 -124.5t-122.5 -50.5q-54 0 -94 44t-38 100zM849 1507q2 70 48 119.5t115 49.5q62 0 102 -41.5t38 -96.5 q-2 -73 -49 -124t-123 -51q-54 0 -93.5 44t-37.5 100z" />
<glyph unicode="&#xe5;" horiz-adv-x="1207" d="M76 414q0 105 25 208.5t79 200t131 170.5t189.5 118.5t245.5 44.5q108 0 237 -39l149 39l-159 -1156h-246l14 217q-57 -98 -144.5 -165.5t-197.5 -67.5q-112 0 -186 57.5t-105.5 151.5t-31.5 221zM363 437q0 -257 116 -257q43 0 87 29t81.5 77.5t66.5 98t52 101.5l67 480 q-49 14 -115 14q-88 0 -158.5 -50.5t-112 -132t-63 -174.5t-21.5 -186zM471 1504q0 61 23 111t60.5 82.5t86.5 55t99 32.5t99 10q133 0 212 -65t79 -186q0 -71 -30.5 -128t-82 -92t-114.5 -53t-132 -18q-141 0 -220.5 65.5t-79.5 185.5zM638 1513q0 -56 43.5 -95.5 t102.5 -39.5q178 0 178 161q0 57 -41 94.5t-102 37.5q-34 0 -64 -8t-57.5 -25t-43.5 -49t-16 -76z" />
<glyph unicode="&#xe6;" horiz-adv-x="1702" d="M75 414q0 105 26 208.5t82 200t135.5 170.5t196.5 118.5t255 44.5q158 0 275 -72q127 72 283 72q155 0 233 -69t78 -187q0 -91 -40.5 -168t-103 -129t-150.5 -93.5t-171 -65.5t-175 -40q-6 -222 177 -222q82 0 172.5 46.5t155.5 114.5l73 -141q-24 -34 -65 -69.5 t-98.5 -70t-135 -56.5t-157.5 -22q-161 0 -259.5 80.5t-134.5 212.5q-27 -57 -59 -105t-74.5 -92.5t-97 -70t-113.5 -25.5q-308 0 -308 430zM362 437q0 -131 25 -188.5t81 -57.5q62 0 126 81.5t115 196.5q12 290 174 481q-69 30 -141 30q-76 0 -140 -33.5t-107.5 -88.5 t-74 -126.5t-44.5 -146t-14 -148.5zM999 563q74 4 157.5 42.5t148 111.5t64.5 157q0 59 -26 84.5t-76 25.5q-59 0 -109.5 -43t-83 -109t-52 -136t-23.5 -133z" />
<glyph unicode="&#xe7;" horiz-adv-x="931" d="M80 438q0 110 26.5 215.5t78 196t123 159t167.5 108t205 39.5q60 0 129 -10.5t110 -29.5l-68 -255q-35 30 -89 56.5t-104 26.5q-116 0 -206.5 -129.5t-90.5 -338.5q0 -154 42 -221.5t135 -67.5q62 0 127.5 35t121.5 92l77 -138q-39 -57 -112 -109t-171 -72 q35 -87 35 -197q0 -132 -74.5 -199t-214.5 -67q-43 0 -111 10.5t-84 21.5l31 177q28 -15 75 -15q80 0 124.5 32.5t46.5 119.5q2 67 -1 111q-84 11 -147.5 50.5t-102.5 100t-58.5 135.5t-19.5 163z" />
<glyph unicode="&#xe8;" horiz-adv-x="1074" d="M80 438q2 202 82.5 366t221.5 258t316 94q155 0 233 -69t78 -187q0 -91 -40.5 -168t-103 -129t-150.5 -93.5t-171 -65.5t-175 -40q-6 -222 177 -222q82 0 172.5 46.5t155.5 114.5l73 -141q-24 -34 -65 -69.5t-98.5 -70t-135 -56.5t-157.5 -22q-107 0 -189 38t-130 102.5 t-71.5 144t-22.5 169.5zM266 1575l181 169l311 -426l-104 -84q-75 30 -212.5 151t-175.5 190zM371 563q74 4 157.5 42.5t148 111.5t64.5 157q0 59 -26 84.5t-76 25.5q-59 0 -109.5 -43t-83 -109t-52 -136t-23.5 -133z" />
<glyph unicode="&#xe9;" horiz-adv-x="1074" d="M80 438q2 202 82.5 366t221.5 258t316 94q155 0 233 -69t78 -187q0 -91 -40.5 -168t-103 -129t-150.5 -93.5t-171 -65.5t-175 -40q-6 -222 177 -222q82 0 172.5 46.5t155.5 114.5l73 -141q-24 -34 -65 -69.5t-98.5 -70t-135 -56.5t-157.5 -22q-107 0 -189 38t-130 102.5 t-71.5 144t-22.5 169.5zM371 563q74 4 157.5 42.5t148 111.5t64.5 157q0 59 -26 84.5t-76 25.5q-59 0 -109.5 -43t-83 -109t-52 -136t-23.5 -133zM560 1319l321 425l180 -169q-30 -57 -171.5 -183t-225.5 -158z" />
<glyph unicode="&#xea;" horiz-adv-x="1074" d="M80 438q2 202 82.5 366t221.5 258t316 94q155 0 233 -69t78 -187q0 -91 -40.5 -168t-103 -129t-150.5 -93.5t-171 -65.5t-175 -40q-6 -222 177 -222q82 0 172.5 46.5t155.5 114.5l73 -141q-24 -34 -65 -69.5t-98.5 -70t-135 -56.5t-157.5 -22q-107 0 -189 38t-130 102.5 t-71.5 144t-22.5 169.5zM312 1286l349 374h179l201 -374l-124 -68l-196 219l-301 -223zM371 563q74 4 157.5 42.5t148 111.5t64.5 157q0 59 -26 84.5t-76 25.5q-59 0 -109.5 -43t-83 -109t-52 -136t-23.5 -133z" />
<glyph unicode="&#xeb;" horiz-adv-x="1074" d="M80 438q2 202 82.5 366t221.5 258t316 94q155 0 233 -69t78 -187q0 -91 -40.5 -168t-103 -129t-150.5 -93.5t-171 -65.5t-175 -40q-6 -222 177 -222q82 0 172.5 46.5t155.5 114.5l73 -141q-24 -34 -65 -69.5t-98.5 -70t-135 -56.5t-157.5 -22q-107 0 -189 38t-130 102.5 t-71.5 144t-22.5 169.5zM331 1507q2 70 48.5 119.5t115.5 49.5q62 0 101.5 -41.5t37.5 -96.5q-2 -74 -48.5 -124.5t-122.5 -50.5q-54 0 -94 44t-38 100zM371 563q74 4 157.5 42.5t148 111.5t64.5 157q0 59 -26 84.5t-76 25.5q-59 0 -109.5 -43t-83 -109t-52 -136t-23.5 -133 zM778 1507q2 70 48 119.5t115 49.5q62 0 102 -41.5t38 -96.5q-2 -73 -49 -124t-123 -51q-54 0 -93.5 44t-37.5 100z" />
<glyph unicode="&#xec;" horiz-adv-x="624" d="M14 1575l181 169l311 -426l-104 -84q-75 30 -212.5 151t-175.5 190zM102 0l156 1140h277l-157 -1140h-276z" />
<glyph unicode="&#xed;" horiz-adv-x="624" d="M102 0l156 1140h277l-157 -1140h-276zM308 1319l321 425l180 -169q-30 -57 -171.5 -183t-225.5 -158z" />
<glyph unicode="&#xee;" horiz-adv-x="624" d="M60 1286l349 374h179l201 -374l-124 -68l-196 219l-301 -223zM102 0l156 1140h277l-157 -1140h-276z" />
<glyph unicode="&#xef;" horiz-adv-x="624" d="M79 1507q2 70 48.5 119.5t115.5 49.5q62 0 101.5 -41.5t37.5 -96.5q-2 -74 -48.5 -124.5t-122.5 -50.5q-54 0 -94 44t-38 100zM102 0l156 1140h277l-157 -1140h-276zM526 1507q2 70 48 119.5t115 49.5q62 0 102 -41.5t38 -96.5q-2 -73 -49 -124t-123 -51q-54 0 -93.5 44 t-37.5 100z" />
<glyph unicode="&#xf0;" horiz-adv-x="1197" d="M78 435q0 167 43.5 304.5t119 228t177 140t217.5 49.5q161 0 218 -80q-11 110 -49 190t-105 153l-128 -143l-116 101l138 141q-118 98 -234 130l52 149q144 -37 301 -144l143 165l108 -102l-137 -155q291 -277 291 -726q0 -142 -24.5 -269.5t-75 -234t-122.5 -184 t-171.5 -121t-217.5 -43.5q-85 0 -156.5 26.5t-120.5 70.5t-84 102.5t-51 122t-16 129.5zM370 423q0 -114 44 -192.5t121 -78.5q65 0 123 57.5t97 153t56 212.5q7 44 16 128.5t10 118.5q1 21 -11 50t-35.5 57t-63 47t-86.5 19q-67 0 -121 -52.5t-85.5 -137t-48 -183 t-16.5 -199.5z" />
<glyph unicode="&#xf1;" horiz-adv-x="1257" d="M80 2l155 1138h263l-16 -212q79 103 185.5 165.5t219.5 62.5q124 0 186.5 -69.5t62.5 -226.5q0 -69 -40 -347q0 -1 -74 -511h-276q9 68 34.5 244.5t37.5 265.5q32 236 33 309q1 64 -21.5 87t-71.5 23q-68 0 -155.5 -64t-149.5 -156l-97 -709h-276zM346 1491 q35 68 124 125.5t168 57.5q45 0 82.5 -15t62.5 -37t47.5 -43.5t48 -36.5t52.5 -15q16 0 30.5 2.5t28.5 11t22.5 13t22.5 19.5t18 19.5t18.5 23.5t16.5 21l102 -117q-28 -75 -113.5 -135.5t-170.5 -60.5q-50 0 -89 15t-64 36.5t-47.5 43t-50.5 36.5t-61 16q-31 0 -62 -16 t-45.5 -29.5t-43.5 -44.5z" />
<glyph unicode="&#xf2;" horiz-adv-x="1158" d="M77 457q-1 137 40.5 262.5t117.5 223t192 155.5t254 58q134 0 224.5 -61.5t131 -165t42.5 -245.5q1 -109 -24.5 -212t-76.5 -191.5t-122 -154.5t-168 -104t-208 -38q-134 0 -225.5 61.5t-133.5 165.5t-44 246zM272 1575l181 169l311 -426l-104 -84q-75 30 -212.5 151 t-175.5 190zM356 438q2 -273 163 -273q71 0 126.5 49t88 128.5t48.5 171.5t15 186q-1 140 -39 208t-119 68q-70 0 -126.5 -50t-90 -130.5t-50.5 -173t-16 -184.5z" />
<glyph unicode="&#xf3;" horiz-adv-x="1158" d="M77 457q-1 137 40.5 262.5t117.5 223t192 155.5t254 58q134 0 224.5 -61.5t131 -165t42.5 -245.5q1 -109 -24.5 -212t-76.5 -191.5t-122 -154.5t-168 -104t-208 -38q-134 0 -225.5 61.5t-133.5 165.5t-44 246zM356 438q2 -273 163 -273q71 0 126.5 49t88 128.5 t48.5 171.5t15 186q-1 140 -39 208t-119 68q-70 0 -126.5 -50t-90 -130.5t-50.5 -173t-16 -184.5zM566 1319l321 425l180 -169q-30 -57 -171.5 -183t-225.5 -158z" />
<glyph unicode="&#xf4;" horiz-adv-x="1158" d="M77 457q-1 137 40.5 262.5t117.5 223t192 155.5t254 58q134 0 224.5 -61.5t131 -165t42.5 -245.5q1 -109 -24.5 -212t-76.5 -191.5t-122 -154.5t-168 -104t-208 -38q-134 0 -225.5 61.5t-133.5 165.5t-44 246zM318 1286l349 374h179l201 -374l-124 -68l-196 219 l-301 -223zM356 438q2 -273 163 -273q71 0 126.5 49t88 128.5t48.5 171.5t15 186q-1 140 -39 208t-119 68q-70 0 -126.5 -50t-90 -130.5t-50.5 -173t-16 -184.5z" />
<glyph unicode="&#xf5;" horiz-adv-x="1158" d="M77 457q-1 137 40.5 262.5t117.5 223t192 155.5t254 58q134 0 224.5 -61.5t131 -165t42.5 -245.5q1 -109 -24.5 -212t-76.5 -191.5t-122 -154.5t-168 -104t-208 -38q-134 0 -225.5 61.5t-133.5 165.5t-44 246zM279 1491q35 68 124 125.5t168 57.5q45 0 82.5 -15t62.5 -37 t47.5 -43.5t48 -36.5t52.5 -15q16 0 30.5 2.5t28.5 11t22.5 13t22.5 19.5t18 19.5t18.5 23.5t16.5 21l102 -117q-28 -75 -113.5 -135.5t-170.5 -60.5q-50 0 -89 15t-64 36.5t-47.5 43t-50.5 36.5t-61 16q-31 0 -62 -16t-45.5 -29.5t-43.5 -44.5zM356 438q2 -273 163 -273 q71 0 126.5 49t88 128.5t48.5 171.5t15 186q-1 140 -39 208t-119 68q-70 0 -126.5 -50t-90 -130.5t-50.5 -173t-16 -184.5z" />
<glyph unicode="&#xf6;" horiz-adv-x="1158" d="M77 457q-1 137 40.5 262.5t117.5 223t192 155.5t254 58q134 0 224.5 -61.5t131 -165t42.5 -245.5q1 -109 -24.5 -212t-76.5 -191.5t-122 -154.5t-168 -104t-208 -38q-134 0 -225.5 61.5t-133.5 165.5t-44 246zM337 1507q2 70 48.5 119.5t115.5 49.5q62 0 101.5 -41.5 t37.5 -96.5q-2 -74 -48.5 -124.5t-122.5 -50.5q-54 0 -94 44t-38 100zM356 438q2 -273 163 -273q71 0 126.5 49t88 128.5t48.5 171.5t15 186q-1 140 -39 208t-119 68q-70 0 -126.5 -50t-90 -130.5t-50.5 -173t-16 -184.5zM784 1507q2 70 48 119.5t115 49.5q62 0 102 -41.5 t38 -96.5q-2 -73 -49 -124t-123 -51q-54 0 -93.5 44t-37.5 100z" />
<glyph unicode="&#xf7;" horiz-adv-x="1368" d="M233 675l27 211l914 -1l-26 -210h-915zM493 336q4 74 59.5 127.5t132.5 53.5q74 0 108.5 -38.5t31.5 -98.5q-4 -81 -59 -131.5t-134 -50.5q-64 0 -103 38t-36 100zM597 1179q4 74 60 127.5t132 53.5q74 0 109 -38.5t32 -98.5q-4 -80 -59.5 -131t-134.5 -51 q-63 0 -102.5 38.5t-36.5 99.5z" />
<glyph unicode="&#xf8;" horiz-adv-x="1158" d="M77 459q-1 137 40.5 262.5t117.5 223t192 155.5t254 58q98 0 174 -34l113 179l89 -49l-117 -184q136 -120 139 -384q1 -109 -24.5 -212t-76.5 -191.5t-122 -154.5t-168 -104t-208 -38q-116 0 -198 44l-107 -162l-89 49l115 174q-122 125 -124 368zM356 440q0 -60 10 -113 l359 623q-34 28 -86 28q-70 0 -126.5 -50t-90 -130.5t-50.5 -173t-16 -184.5zM414 212q39 -45 105 -45q71 0 126.5 49t88 128.5t48.5 171.5t15 186q-2 93 -15 145z" />
<glyph unicode="&#xf9;" horiz-adv-x="1233" d="M112 253q-1 74 28 293q55 415 83 594h274q-69 -515 -79 -597q-23 -166 -23 -236q0 -62 26 -88t76 -26q67 0 145 65t137 160l98 722h276l-153 -1140h-250l13 205q-70 -99 -169 -162t-211 -63q-270 0 -271 273zM307 1575l181 169l311 -426l-104 -84q-75 30 -212.5 151 t-175.5 190z" />
<glyph unicode="&#xfa;" horiz-adv-x="1233" d="M112 253q-1 74 28 293q55 415 83 594h274q-69 -515 -79 -597q-23 -166 -23 -236q0 -62 26 -88t76 -26q67 0 145 65t137 160l98 722h276l-153 -1140h-250l13 205q-70 -99 -169 -162t-211 -63q-270 0 -271 273zM601 1319l321 425l180 -169q-30 -57 -171.5 -183t-225.5 -158 z" />
<glyph unicode="&#xfb;" horiz-adv-x="1233" d="M112 253q-1 74 28 293q55 415 83 594h274q-69 -515 -79 -597q-23 -166 -23 -236q0 -62 26 -88t76 -26q67 0 145 65t137 160l98 722h276l-153 -1140h-250l13 205q-70 -99 -169 -162t-211 -63q-270 0 -271 273zM353 1286l349 374h179l201 -374l-124 -68l-196 219l-301 -223 z" />
<glyph unicode="&#xfc;" horiz-adv-x="1233" d="M112 253q-1 74 28 293q55 415 83 594h274q-69 -515 -79 -597q-23 -166 -23 -236q0 -62 26 -88t76 -26q67 0 145 65t137 160l98 722h276l-153 -1140h-250l13 205q-70 -99 -169 -162t-211 -63q-270 0 -271 273zM372 1507q2 70 48.5 119.5t115.5 49.5q62 0 101.5 -41.5 t37.5 -96.5q-2 -74 -48.5 -124.5t-122.5 -50.5q-54 0 -94 44t-38 100zM819 1507q2 70 48 119.5t115 49.5q62 0 102 -41.5t38 -96.5q-2 -73 -49 -124t-123 -51q-54 0 -93.5 44t-37.5 100z" />
<glyph unicode="&#xfd;" horiz-adv-x="1095" d="M-144 -458l73 203q73 -46 147 -46q94 0 175 61t190 222h-164l-60 375l-112 783h284l79 -733l36 -312q83 156 111 244q79 154 117 302t55 351q3 33 5 148h256q5 -50 2 -143q-12 -330 -199 -716q-112 -240 -259 -432q-101 -131 -130 -164q-124 -140 -268 -177 q-64 -17 -136 -17q-100 0 -202 51zM465 1319l321 425l180 -169q-30 -57 -171.5 -183t-225.5 -158z" />
<glyph unicode="&#xfe;" horiz-adv-x="1227" d="M10 -504l70 496l222 1644h264l-70 -574l-27 -147q57 100 148 170.5t205 70.5q165 0 244 -118t79 -314q0 -105 -25.5 -208t-80.5 -199.5t-132.5 -170t-190.5 -118t-246 -44.5q-53 0 -125 12l-15 -135l-48 -365h-272zM380 174q45 -13 117 -13q88 0 159.5 50.5t113.5 131 t64.5 173.5t22.5 186q0 256 -115 256q-46 0 -93.5 -31.5t-87 -82.5t-69.5 -102t-52 -102z" />
<glyph unicode="&#xff;" horiz-adv-x="1095" d="M-144 -458l73 203q73 -46 147 -46q94 0 175 61t190 222h-164l-60 375l-112 783h284l79 -733l36 -312q83 156 111 244q79 154 117 302t55 351q3 33 5 148h256q5 -50 2 -143q-12 -330 -199 -716q-112 -240 -259 -432q-101 -131 -130 -164q-124 -140 -268 -177 q-64 -17 -136 -17q-100 0 -202 51zM236 1507q2 70 48.5 119.5t115.5 49.5q62 0 101.5 -41.5t37.5 -96.5q-2 -74 -48.5 -124.5t-122.5 -50.5q-54 0 -94 44t-38 100zM683 1507q2 70 48 119.5t115 49.5q62 0 102 -41.5t38 -96.5q-2 -73 -49 -124t-123 -51q-54 0 -93.5 44 t-37.5 100z" />
<glyph unicode="&#x152;" horiz-adv-x="2159" d="M87 594q-2 262 87.5 478.5t258.5 345t385 128.5q153 0 261 -70t170 -194l34 248h841l-22 -216l-572 5l-57 -432l428 6l-24 -221l-432 12l-63 -474l666 13l-25 -223h-946l30 227q-94 -116 -220.5 -179.5t-277.5 -63.5q-127 0 -227 48t-163.5 132t-97 193.5t-34.5 236.5z M372 622q3 -228 68 -328.5t199 -100.5q92 0 171 62t131 163t81 229t28 262q-2 227 -67 326.5t-200 99.5q-92 0 -171 -63t-131 -165t-81 -229t-28 -256z" />
<glyph unicode="&#x153;" horiz-adv-x="1770" d="M77 452q-1 108 24.5 211t76.5 192t122 156.5t168 106t208 38.5q219 0 319 -163q168 163 401 163q155 0 233 -69t78 -187q0 -91 -40.5 -168t-103 -129t-150.5 -93.5t-171 -65.5t-175 -40q-6 -222 177 -222q82 0 172.5 46.5t155.5 114.5l73 -141q-24 -34 -65 -69.5 t-98.5 -70t-135 -56.5t-157.5 -22q-222 0 -332 157q-155 -157 -377 -157q-199 0 -300 126t-103 342zM356 433q3 -268 163 -268q75 0 132.5 56.5t87.5 144t44.5 176t13.5 170.5q-1 136 -41 200t-122 64q-70 0 -125.5 -51t-88 -133t-49 -174.5t-15.5 -184.5zM1067 563 q74 4 157.5 42.5t148 111.5t64.5 157q0 59 -26 84.5t-76 25.5q-59 0 -109.5 -43t-83 -109t-52 -136t-23.5 -133z" />
<glyph unicode="&#x178;" horiz-adv-x="1130" d="M89 1530h292l195 -608l28 -105l48 105l348 608h303l-597 -940l-80 -590h-271l80 590zM342 1807q2 70 50 120t114 50q62 0 101 -41t37 -97q-2 -73 -48.5 -124t-121.5 -51q-54 0 -94 44t-38 99zM788 1807q1 70 49 120t114 50q62 0 102 -41.5t38 -96.5q-2 -73 -49 -124 t-123 -51q-53 0 -92.5 43.5t-38.5 99.5z" />
<glyph unicode="&#x2c6;" horiz-adv-x="799" d="M42 1286l349 374h179l201 -374l-124 -68l-196 219l-301 -223z" />
<glyph unicode="&#x2dc;" horiz-adv-x="820" d="M-18 1491q35 68 124 125.5t168 57.5q45 0 82.5 -15t62.5 -37t47.5 -43.5t48 -36.5t52.5 -15q16 0 30.5 2.5t28.5 11t22.5 13t22.5 19.5t18 19.5t18.5 23.5t16.5 21l102 -117q-28 -75 -113.5 -135.5t-170.5 -60.5q-50 0 -89 15t-64 36.5t-47.5 43t-50.5 36.5t-61 16 q-31 0 -62 -16t-45.5 -29.5t-43.5 -44.5z" />
<glyph unicode="&#x2000;" horiz-adv-x="1003" />
<glyph unicode="&#x2001;" horiz-adv-x="2007" />
<glyph unicode="&#x2002;" horiz-adv-x="1003" />
<glyph unicode="&#x2003;" horiz-adv-x="2007" />
<glyph unicode="&#x2004;" horiz-adv-x="669" />
<glyph unicode="&#x2005;" horiz-adv-x="501" />
<glyph unicode="&#x2006;" horiz-adv-x="334" />
<glyph unicode="&#x2007;" horiz-adv-x="334" />
<glyph unicode="&#x2008;" horiz-adv-x="250" />
<glyph unicode="&#x2009;" horiz-adv-x="401" />
<glyph unicode="&#x200a;" horiz-adv-x="111" />
<glyph unicode="&#x2010;" horiz-adv-x="1266" d="M221 671l27 203h839l-28 -203h-838z" />
<glyph unicode="&#x2011;" horiz-adv-x="1266" d="M221 671l27 203h839l-28 -203h-838z" />
<glyph unicode="&#x2012;" horiz-adv-x="1266" d="M221 671l27 203h839l-28 -203h-838z" />
<glyph unicode="&#x2013;" horiz-adv-x="1538" d="M221 671l33 203h1098l-33 -203h-1098z" />
<glyph unicode="&#x2014;" horiz-adv-x="2031" d="M221 671l33 203h1581l-33 -203h-1581z" />
<glyph unicode="&#x2018;" horiz-adv-x="696" d="M198 1245q0 81 22 155.5t56.5 129.5t80 101.5t89 76t86.5 48.5l95 -126l-2 -22q-60 -30 -110 -116t-50 -196q0 -61 21 -121t56 -91l-5 -41l-157 -136q-70 35 -126 126t-56 212z" />
<glyph unicode="&#x2019;" horiz-adv-x="696" d="M191 1027l2 22q60 30 110 116t50 196q0 61 -21 121t-56 91l5 41l157 136q70 -35 126 -126t56 -212q0 -81 -22 -155.5t-56.5 -129.5t-80 -101.5t-89 -76t-86.5 -48.5z" />
<glyph unicode="&#x201a;" horiz-adv-x="696" d="M56 -412l2 22q60 30 110 116t50 196q0 61 -21 121t-56 91l5 41l157 136q70 -35 126 -126t56 -212q0 -81 -22 -155.5t-56.5 -129.5t-80 -101.5t-89 -76t-86.5 -48.5z" />
<glyph unicode="&#x201c;" horiz-adv-x="1205" d="M198 1245q0 81 22 155.5t56.5 129.5t80 101.5t89 76t86.5 48.5l95 -126l-2 -22q-60 -30 -110 -116t-50 -196q0 -61 21 -121t56 -91l-5 -41l-157 -136q-70 35 -126 126t-56 212zM707 1245q0 81 22 155.5t56.5 129.5t80 101.5t89 76t86.5 48.5l95 -126l-2 -22 q-60 -30 -110 -116t-50 -196q0 -61 21 -121t56 -91l-5 -41l-157 -136q-70 35 -126 126t-56 212z" />
<glyph unicode="&#x201d;" horiz-adv-x="1204" d="M241 1027l2 22q60 30 110 116t50 196q0 61 -21 121t-56 91l5 41l157 136q70 -35 126 -126t56 -212q0 -81 -22 -155.5t-56.5 -129.5t-80 -101.5t-89 -76t-86.5 -48.5zM753 1027l2 22q60 30 110 116t50 196q0 61 -21 121t-56 91l5 41l157 136q70 -35 126 -126t56 -212 q0 -81 -22 -155.5t-56.5 -129.5t-80 -101.5t-89 -76t-86.5 -48.5z" />
<glyph unicode="&#x201e;" horiz-adv-x="1204" d="M56 -412l2 22q60 30 110 116t50 196q0 61 -21 121t-56 91l5 41l157 136q70 -35 126 -126t56 -212q0 -81 -22 -155.5t-56.5 -129.5t-80 -101.5t-89 -76t-86.5 -48.5zM565 -412l2 22q60 30 110 116t50 196q0 61 -21 121t-56 91l5 41l157 136q70 -35 126 -126t56 -212 q0 -81 -22 -155.5t-56.5 -129.5t-80 -101.5t-89 -76t-86.5 -48.5z" />
<glyph unicode="&#x2022;" horiz-adv-x="858" d="M233 683q0 94 74 175t177 81q76 0 126 -49t50 -123q0 -97 -71 -178.5t-180 -81.5q-74 0 -125 51.5t-51 124.5z" />
<glyph unicode="&#x2026;" horiz-adv-x="1579" d="M59 113q5 75 56.5 128t126.5 53q76 0 110 -38.5t31 -98.5q-4 -82 -58 -132.5t-133 -50.5q-63 0 -100 38.5t-33 100.5zM585 113q5 75 56.5 128t126.5 53q76 0 110 -38.5t31 -98.5q-4 -82 -58 -132.5t-133 -50.5q-63 0 -100 38.5t-33 100.5zM1111 113q5 75 56.5 128 t126.5 53q76 0 110 -38.5t31 -98.5q-4 -82 -58 -132.5t-133 -50.5q-63 0 -100 38.5t-33 100.5z" />
<glyph unicode="&#x202f;" horiz-adv-x="401" />
<glyph unicode="&#x2039;" horiz-adv-x="1190" d="M204 530l27 175l717 396l48 -160l-470 -331l389 -326l-90 -142z" />
<glyph unicode="&#x203a;" horiz-adv-x="1190" d="M194 297l470 331l-389 326l90 142l621 -388l-27 -175l-717 -396z" />
<glyph unicode="&#x205f;" horiz-adv-x="501" />
<glyph unicode="&#x20ac;" horiz-adv-x="1389" d="M24 539l20 162h179q5 99 20 176h-174l20 161h198q86 236 265.5 372t410.5 136q33 0 63 -1.5t57.5 -5.5t46 -7t44 -9.5t36 -9.5t36 -11t31.5 -10l-69 -214q-22 24 -99.5 45.5t-174.5 21.5q-126 0 -218.5 -80.5t-146.5 -226.5h506l-19 -161h-529q-16 -86 -20 -176h526 l-17 -162h-509q24 -365 276 -365q105 0 181.5 31.5t153.5 88.5l63 -169q-55 -62 -175 -101.5t-270 -39.5q-99 0 -181 31t-138.5 82.5t-97.5 124t-62.5 151t-29.5 166.5h-203z" />
<glyph unicode="&#x2122;" horiz-adv-x="2120" d="M176 1373l25 157h666l-19 -157h-245l-91 -639l-181 -1l91 640h-246zM898 734l149 796h293l92 -416l28 -157l238 573h302l-31 -796h-184l32 502l16 204l-34 -80l-286 -634h-152l-129 548l-35 168l-28 -171l-90 -537h-181z" />
<glyph unicode="&#x25fc;" horiz-adv-x="1140" d="M0 0v1140h1140v-1140h-1140z" />
</font>
</defs>
</svg>
