<?xml version="1.0" standalone="no"?>
<!DOCTYPE svg PUBLIC "-//W3C//DTD SVG 1.1//EN" "http://www.w3.org/Graphics/SVG/1.1/DTD/svg11.dtd" >
<svg xmlns="http://www.w3.org/2000/svg">
<metadata></metadata>
<defs>
<font id="merriweather_sansbold" horiz-adv-x="0" >
<font-face units-per-em="2048" ascent="1638" descent="-410" />
<missing-glyph horiz-adv-x="669" />
<glyph unicode="&#xfb01;" horiz-adv-x="1518" d="M82 924v182l155 34v109q0 97 25.5 173t67 124t98.5 80t115 44.5t120 12.5q59 0 119.5 -7.5t82.5 -14.5v-222q-50 24 -156 24q-73 0 -116.5 -53t-43.5 -154v-116h266v-216h-266v-924h-312v924h-155zM1006 1478q0 76 60 131.5t139 55.5q82 0 131 -47.5t49 -122.5 q0 -77 -59 -132.5t-139 -55.5q-77 0 -129 48.5t-52 122.5zM1032 0v1140h312v-1140h-312z" />
<glyph unicode="&#xfb02;" horiz-adv-x="1530" d="M82 924v182l155 34v109q0 97 25.5 173t67 124t98.5 80t115 44.5t120 12.5q59 0 119.5 -7.5t82.5 -14.5v-222q-50 24 -156 24q-73 0 -116.5 -53t-43.5 -154v-116h266v-216h-266v-924h-312v924h-155zM1038 0v1662h312v-1662h-312z" />
<glyph unicode="&#xfb03;" horiz-adv-x="2376" d="M82 924v182l155 34v109q0 97 25.5 173t67 124t98.5 80t115 44.5t120 12.5q59 0 119.5 -7.5t82.5 -14.5v-222q-50 24 -156 24q-73 0 -116.5 -53t-43.5 -154v-116h266v-216h-266v-924h-312v924h-155zM940 924v182l155 34v109q0 97 25.5 173t67 124t98.5 80t115 44.5 t120 12.5q59 0 119.5 -7.5t82.5 -14.5v-222q-50 24 -156 24q-73 0 -116.5 -53t-43.5 -154v-116h266v-216h-266v-924h-312v924h-155zM1864 1478q0 76 60 131.5t139 55.5q82 0 131 -47.5t49 -122.5q0 -77 -59 -132.5t-139 -55.5q-77 0 -129 48.5t-52 122.5zM1890 0v1140h312 v-1140h-312z" />
<glyph unicode="&#xfb04;" horiz-adv-x="2388" d="M82 924v182l155 34v109q0 97 25.5 173t67 124t98.5 80t115 44.5t120 12.5q59 0 119.5 -7.5t82.5 -14.5v-222q-50 24 -156 24q-73 0 -116.5 -53t-43.5 -154v-116h266v-216h-266v-924h-312v924h-155zM940 924v182l155 34v109q0 97 25.5 173t67 124t98.5 80t115 44.5 t120 12.5q59 0 119.5 -7.5t82.5 -14.5v-222q-50 24 -156 24q-73 0 -116.5 -53t-43.5 -154v-116h266v-216h-266v-924h-312v924h-155zM1896 0v1662h312v-1662h-312z" />
<glyph horiz-adv-x="2048" />
<glyph horiz-adv-x="2048" />
<glyph unicode="&#xd;" horiz-adv-x="2048" />
<glyph />
<glyph />
<glyph />
<glyph />
<glyph />
<glyph />
<glyph />
<glyph unicode="&#x9;" />
<glyph unicode="&#xa;" />
<glyph />
<glyph />
<glyph />
<glyph />
<glyph />
<glyph />
<glyph />
<glyph />
<glyph />
<glyph />
<glyph />
<glyph />
<glyph unicode=" "  horiz-adv-x="669" />
<glyph unicode="&#x09;" horiz-adv-x="669" />
<glyph unicode="&#xa0;" horiz-adv-x="669" />
<glyph unicode="!" horiz-adv-x="641" d="M126 171q-2 85 59 148.5t144 63.5q85 0 135 -54t51 -138q1 -87 -58.5 -150t-144.5 -63q-80 0 -132.5 55t-53.5 138zM151 1780h347l-34 -1225h-267z" />
<glyph unicode="&#x22;" horiz-adv-x="1245" d="M216 1685h305l-36 -719h-231zM724 1685h305l-36 -719h-231z" />
<glyph unicode="#" horiz-adv-x="1645" d="M196 326v210h206l30 320h-198v202h217l30 315h261l-30 -315h275l29 315h259l-30 -315h204v-202h-223l-30 -320h209v-210h-229l-31 -326h-254l29 326h-279l-31 -326h-258l30 326h-186zM661 536h278l29 320h-276z" />
<glyph unicode="$" horiz-adv-x="1410" d="M223 1128q0 91 29.5 163t83.5 119.5t123.5 76.5t155.5 41l8 235h183l-7 -226q116 -5 209.5 -31.5t138.5 -55.5l-52 -247q-153 97 -332 97q-228 0 -228 -156q0 -33 10.5 -59.5t27.5 -48t53.5 -47t72 -45.5t99.5 -54q59 -31 99 -53.5t88 -53.5t78.5 -58t62.5 -63t49.5 -73 t29 -83t11.5 -98q0 -188 -125 -298t-337 -124l-5 -211h-184l6 216q-109 11 -203.5 35.5t-131.5 47.5l45 255q73 -40 176 -68t216 -28q123 0 173 37.5t50 117.5q0 78 -56.5 127.5t-238.5 139.5q-61 30 -109.5 59.5t-100.5 73.5t-87.5 91.5t-58 112t-22.5 136.5z" />
<glyph unicode="%" horiz-adv-x="2188" d="M103 1071q0 105 35.5 191.5t95 142.5t136.5 86.5t161 31.5q101 1 178 -33t123.5 -95.5t70 -141.5t23.5 -175q0 -105 -35.5 -191.5t-95 -142t-136 -86t-161.5 -31.5q-190 -1 -292.5 124.5t-102.5 319.5zM352 1080q0 -115 42.5 -185.5t117.5 -70.5q79 0 122 65t43 181 q0 118 -42.5 187.5t-118.5 69.5q-79 0 -121.5 -65.5t-42.5 -181.5zM675 0l592 1530h247l-593 -1530h-246zM1261 456q0 105 35.5 192t95.5 143t136.5 86.5t161.5 31.5q196 2 295.5 -122.5t99.5 -322.5q0 -105 -35.5 -192t-95.5 -142.5t-136.5 -86t-161.5 -31.5 q-128 0 -219 60.5t-133.5 159.5t-42.5 224zM1510 466q0 -115 43 -185.5t118 -70.5q79 0 121.5 65t42.5 181q0 117 -42.5 187t-117.5 70q-79 0 -122 -65.5t-43 -181.5z" />
<glyph unicode="&#x26;" horiz-adv-x="1542" d="M88 399q0 128 83.5 225.5t226.5 164.5q-67 92 -104.5 178t-37.5 201q0 177 120 277.5t323 100.5q187 0 300.5 -105.5t113.5 -258.5q0 -92 -22 -164t-67 -127.5t-99.5 -96t-132.5 -80.5q151 -194 285 -337q73 83 73 200q0 32 -3 64t-7 50t-8.5 39.5t-5.5 26.5h258 q20 -83 20 -181q0 -228 -137 -363q73 -43 199 -47v-167q-60 -15 -143 -15q-162 0 -279 72q-170 -72 -309 -72q-320 0 -483.5 107t-163.5 308zM383 416q0 -96 71.5 -147.5t233.5 -51.5q87 0 157 15q-161 176 -317 377q-145 -77 -145 -193zM535 1173q0 -53 16 -99t36 -77 t75 -106q95 49 144 117.5t49 170.5q0 59 -39 108.5t-116 49.5q-75 0 -120 -44.5t-45 -119.5z" />
<glyph unicode="'" horiz-adv-x="737" d="M216 1685h305l-36 -719h-231z" />
<glyph unicode="(" horiz-adv-x="835" d="M130 717q0 174 38 337t93.5 278.5t123 211t121 148t93.5 75.5l181 -116q-28 -21 -68.5 -65.5t-95.5 -131t-100 -189.5t-77 -251.5t-32 -306.5q0 -166 29.5 -316t72 -251.5t97.5 -185.5t96.5 -128t77.5 -70l-181 -116q-24 14 -55 39.5t-77.5 75t-90.5 110t-89.5 150 t-79.5 190t-55.5 234t-21.5 278.5z" />
<glyph unicode=")" horiz-adv-x="835" d="M45 -227q28 21 68.5 65.5t95.5 131t100 189.5t77 251.5t32 306.5q0 166 -29.5 316t-72 251.5t-97.5 185.5t-96.5 128t-77.5 70l181 116q24 -14 55 -39.5t77.5 -75t90.5 -110t89.5 -150t79.5 -190t55.5 -234t21.5 -278.5q0 -174 -38 -337t-93.5 -278.5t-123 -211 t-121 -148t-93.5 -75.5z" />
<glyph unicode="*" horiz-adv-x="1348" d="M130 1347l110 208l243 -164l137 -130q-1 9 -22.5 87t-23.5 95l-26 293h236l-17 -288l-43 -184q7 6 64 64.5t69 69.5l242 166l112 -206l-253 -131l-181 -55l183 -49l258 -123l-119 -214l-233 162l-141 130q2 -9 23 -87t24 -95l27 -293l-236 -1l17 293l43 185l-135 -138 l-235 -166l-117 207l252 135l181 53q-9 4 -88 23t-94 25z" />
<glyph unicode="+" horiz-adv-x="1403" d="M213 656v237h209l162 -7l-6 187v217h246v-217l-7 -187l151 7h222v-237h-222l-151 6l7 -188v-214h-246v214l6 188l-162 -6h-209z" />
<glyph unicode="," horiz-adv-x="693" d="M163 73v87l222 136q87 -33 135.5 -127t48.5 -191q0 -168 -83 -305t-204 -179l-106 98v26q41 25 72.5 96.5t31.5 149.5q0 69 -39 138t-78 71z" />
<glyph unicode="-" horiz-adv-x="1360" d="M255 644v245h850v-245h-850z" />
<glyph unicode="." horiz-adv-x="641" d="M126 171q-1 85 59.5 148.5t144.5 63.5q85 0 134.5 -54.5t50.5 -137.5q2 -87 -58 -150t-144 -63q-80 0 -133 55t-54 138z" />
<glyph unicode="/" horiz-adv-x="864" d="M24 -363l561 1962h255l-561 -1962h-255z" />
<glyph unicode="0" horiz-adv-x="1409" d="M124 642q4 288 169.5 459t428.5 171q568 0 563 -637q-2 -292 -161.5 -471.5t-426.5 -179.5q-124 0 -223.5 36t-164.5 97t-107.5 146t-60.5 179t-17 200zM439 651q0 -119 27.5 -217t89 -164.5t149.5 -68.5q131 -4 198 107t67 318q0 122 -26.5 216t-86.5 153t-148 60 q-131 2 -200.5 -105.5t-69.5 -298.5z" />
<glyph unicode="1" horiz-adv-x="1004" d="M127 1067q97 25 235 93.5t198 117.5l154 -25l-2 -1253h-321v929q-76 -18 -238 -47z" />
<glyph unicode="2" horiz-adv-x="1361" d="M143 155q87 49 168 100.5t175.5 124.5t163.5 144t115 154t46 159q0 93 -53.5 150t-159.5 57q-93 0 -184 -39.5t-146 -94.5l-117 183q74 78 204.5 138.5t293.5 60.5q131 0 228.5 -33t152.5 -90t81.5 -125.5t26.5 -148.5q0 -351 -486 -652l557 21v-264h-1023z" />
<glyph unicode="3" horiz-adv-x="1170" d="M77 1129q50 53 179.5 102.5t262.5 49.5q237 0 361 -98t124 -266q0 -133 -74 -231t-195 -155q90 -8 159.5 -43.5t109.5 -88t60 -111t20 -118.5q0 -142 -84 -257t-240 -181.5t-356 -66.5q-28 0 -55.5 1.5t-48.5 4t-43.5 6t-36.5 6.5t-32.5 8t-26 7.5t-22 7t-16.5 5.5 l-1 204q107 -23 188 -23q196 0 319 71.5t123 203.5q0 54 -15.5 98t-48 79t-89 53t-133.5 15l-139 -36l-42 198q152 32 244 80q151 85 154 221q1 82 -55.5 121t-151.5 39q-70 0 -133.5 -18t-97 -36t-75.5 -47z" />
<glyph unicode="4" horiz-adv-x="1412" d="M100 133l560 1201h73l244 -123l-461 -850l-76 -127h388l38 410h262v-410h233v-234h-233v-376h-300v376h-652z" />
<glyph unicode="5" horiz-adv-x="1293" d="M192 -341l1 218q54 -2 79 -2q248 0 404 99.5t156 259.5q0 111 -66 163.5t-220 53.5q-95 0 -297 -66l-50 30l66 837h847l-28 -267h-593l-33 -335q156 35 252 35q208 0 324.5 -119t116.5 -321q0 -167 -99.5 -302t-288.5 -215.5t-436 -81.5q-90 0 -135 13z" />
<glyph unicode="6" horiz-adv-x="1414" d="M127 586q0 170 55.5 327.5t146 275t205.5 211t234.5 148t232.5 72.5l76 -187q-137 -35 -255 -118t-194.5 -188.5t-120.5 -223t-46 -228.5q-2 -103 11 -186t42.5 -149t81.5 -102t123 -36q124 0 187 75.5t63 205.5q0 157 -52.5 226t-137.5 69q-86 0 -156 -36l-63 181 q34 35 111.5 64.5t180.5 29.5q134 0 234 -64t149.5 -168t49.5 -231q0 -116 -36.5 -217t-107.5 -181t-187 -126t-264 -46q-129 0 -236.5 48t-178 130.5t-109.5 191.5t-39 232z" />
<glyph unicode="7" horiz-adv-x="1286" d="M106 997v274h1001l77 -117l-602 -1548l-318 92q275 572 572 1298z" />
<glyph unicode="8" horiz-adv-x="1356" d="M129 385q0 112 69 214.5t217 179.5q-110 75 -172.5 169t-62.5 226q0 176 136 283.5t366 107.5q228 0 359 -97t131 -256q0 -113 -69 -223.5t-199 -172.5q58 -33 101 -61.5t88.5 -68t74.5 -79t47.5 -90.5t19.5 -107q1 -135 -71.5 -233t-194.5 -145.5t-277 -47.5 q-252 0 -407.5 103.5t-155.5 297.5zM424 403q0 -89 66.5 -144t202.5 -55q96 0 163.5 47t67.5 127q0 37 -16.5 71t-42.5 60t-67.5 53.5t-80 49t-92.5 48.5q-15 7 -22 11q-179 -95 -179 -268zM468 1193q0 -80 63.5 -143.5t182.5 -130.5q92 38 137.5 110t43.5 158q0 74 -58 121 t-159 47q-89 0 -149.5 -45t-60.5 -117z" />
<glyph unicode="9" horiz-adv-x="1427" d="M135 708q0 120 37.5 222t110 178.5t187 120t259.5 43.5q131 0 238 -48t176.5 -130.5t107 -191.5t37.5 -232q0 -146 -40 -284t-108 -247.5t-156.5 -204t-187.5 -161t-199.5 -109.5t-193.5 -58l-83 184q115 29 217.5 92.5t177 146t129.5 178t83 191t29 181.5 q2 106 -12 190.5t-44 148.5t-81 99t-121 35q-118 0 -183.5 -71.5t-65.5 -190.5q0 -161 54.5 -239t145.5 -78q40 0 72.5 6t44.5 11t37 16l60 -178q-32 -36 -108 -65t-185 -29q-135 0 -235.5 66t-150 172.5t-49.5 235.5z" />
<glyph unicode=":" horiz-adv-x="641" d="M126 171q-1 85 59.5 148.5t144.5 63.5q85 0 134.5 -54.5t50.5 -137.5q2 -87 -58 -150t-144 -63q-80 0 -133 55t-54 138zM126 930q-1 85 59.5 148.5t144.5 63.5q85 0 134.5 -54.5t50.5 -137.5q2 -87 -58 -150t-144 -63q-80 0 -133 55t-54 138z" />
<glyph unicode=";" horiz-adv-x="641" d="M126 930q-1 85 59.5 148.5t144.5 63.5q85 0 134.5 -54.5t50.5 -137.5q2 -87 -58 -150t-144 -63q-80 0 -133 55t-54 138zM137 73v87l222 136q87 -33 135.5 -127t48.5 -191q0 -168 -83 -305t-204 -179l-106 98v26q41 25 72.5 96.5t31.5 149.5q0 69 -39 138t-78 71z" />
<glyph unicode="&#x3c;" horiz-adv-x="1378" d="M197 698v154l952 479v-274l-597 -284l597 -262v-282z" />
<glyph unicode="=" horiz-adv-x="1423" d="M251 411v216h921v-216h-921zM251 923v216h921v-216h-921z" />
<glyph unicode="&#x3e;" horiz-adv-x="1377" d="M218 229v282l597 262l-597 284v274l952 -479v-154z" />
<glyph unicode="?" horiz-adv-x="1057" d="M126 1565v232q33 20 106.5 34.5t162.5 14.5q130 0 233.5 -25t170 -67t110 -101t61.5 -122.5t16 -135.5q0 -76 -23.5 -141t-61.5 -112t-84.5 -88.5t-93.5 -79.5t-86.5 -76t-66.5 -86t-31 -102q1 -33 -1 -41t4 -37.5t8 -37t11.5 -40.5t13.5 -48h-238q-76 112 -78 269 q-1 63 20.5 117t56.5 93t77.5 75t85.5 69.5t78.5 69t57.5 82t22 99.5q0 106 -79.5 158.5t-245.5 52.5q-35 0 -65 -2t-53 -5.5t-36.5 -6t-31 -7t-20.5 -5.5zM306 154q-1 77 57 135t134 58q79 0 127 -49.5t49 -125.5q1 -79 -56.5 -136.5t-134.5 -57.5q-74 0 -124.5 50.5 t-51.5 125.5z" />
<glyph unicode="@" horiz-adv-x="2228" d="M171 440q0 195 55 369t155 307t234 229.5t297.5 147t341.5 50.5q175 0 321 -48t253.5 -139.5t167.5 -232.5t60 -318q0 -156 -34 -289.5t-92 -228t-135 -161.5t-163 -99t-175 -32q-175 0 -189 187q-3 26 -1 75q-155 -262 -363 -262q-52 0 -102.5 28t-93 81t-68 140.5 t-23.5 195.5q2 86 24 172.5t69.5 171.5t114.5 150t166.5 105.5t217.5 40.5q153 0 232 -55l185 31q-63 -269 -128 -628q-23 -136 -15.5 -184t46.5 -48q56 0 112 42t102 115t75 184t29 238q0 591 -611 591q-170 0 -324.5 -64.5t-272 -180t-187.5 -290.5t-70 -383 q0 -162 40.5 -291t106.5 -211.5t157 -137t186.5 -77t200.5 -22.5q91 0 164 9.5t131 30t82.5 32t71.5 36.5l43 -159q-210 -126 -512 -126q-147 0 -277 34t-241.5 106t-192 177.5t-126 256.5t-45.5 334zM860 466q-3 -244 114 -244q65 0 146 105t140 247t75 255q-40 54 -158 54 q-88 0 -162 -64t-113.5 -159t-41.5 -194z" />
<glyph unicode="A" horiz-adv-x="1421" d="M-15 0l562 1538h322l567 -1538h-347l-102 322h-560l-100 -322h-342zM499 551h415l-165 522l-43 157l-44 -157z" />
<glyph unicode="B" horiz-adv-x="1422" d="M188 0v1523l154 -1q45 0 160 7.5t198 7.5q279 0 418 -104t139 -281q0 -126 -61 -220.5t-167 -122.5q137 -15 223 -109t86 -239q0 -86 -18.5 -155.5t-63 -130t-114.5 -101.5t-178 -64.5t-249 -23.5q-145 0 -366 14h-161zM503 232q33 -26 221 -26q149 0 220.5 55t71.5 186 q0 117 -70.5 170.5t-222.5 53.5q-179 0 -220 -7v-432zM503 893q53 -9 191 -9t199 56t61 185q0 179 -288 179q-133 0 -163 -13v-398z" />
<glyph unicode="C" horiz-adv-x="1299" d="M100 757q0 184 58 333.5t159.5 246.5t236.5 149t292 52q99 0 173 -9.5t150.5 -28t90.5 -21.5l-46 -280q-1 1 -18.5 10.5t-24 12.5t-25.5 12t-32 13t-35.5 12t-43.5 11.5t-48 7.5t-57.5 6t-63.5 2q-190 0 -314 -137.5t-124 -371.5q0 -158 54.5 -281.5t160 -194.5 t247.5 -71q96 0 202 31.5t151 64.5l1 -262q-63 -25 -101 -38t-117.5 -27.5t-165.5 -14.5q-231 0 -404 97t-264.5 271.5t-91.5 404.5z" />
<glyph unicode="D" horiz-adv-x="1554" d="M188 0v1522h151q35 0 155.5 8t213.5 8q375 0 560.5 -190t185.5 -547q0 -386 -208 -603q-205 -214 -552 -214h-10q-76 1 -188 8.5t-154 7.5h-154zM509 246q68 -18 204 -18q190 2 297.5 133.5t107.5 405.5q0 196 -49 313.5t-143.5 167.5t-247.5 50q-28 0 -60.5 -2.5 t-65 -6.5t-43.5 -5v-1038z" />
<glyph unicode="E" horiz-adv-x="1254" d="M188 0v1522h928v-244h-610v-378h468v-241h-468v-408h675v-251h-993z" />
<glyph unicode="F" horiz-adv-x="1145" d="M188 0v1522h923v-244h-601v-399h442v-245h-442v-634h-322z" />
<glyph unicode="G" horiz-adv-x="1494" d="M100 753q0 160 38 291t106 222t164 152.5t208.5 90.5t242.5 29q105 0 171.5 -7.5t151.5 -28t107 -24.5l-10 -273q-84 40 -175 60.5t-244 20.5q-200 0 -314.5 -134t-114.5 -372q0 -158 40 -280t128 -197t216 -75q153 0 255 38v305l-233 12v237h535v-730 q-27 -1 -78.5 -18.5t-105.5 -36.5t-152 -35t-209 -16q-343 0 -535 207.5t-192 561.5z" />
<glyph unicode="H" horiz-adv-x="1601" d="M188 0v1522h318v-632h593v632h314v-1522h-314v651h-593v-651h-318z" />
<glyph unicode="I" horiz-adv-x="722" d="M201 0v1522h320v-1522h-320z" />
<glyph unicode="J" horiz-adv-x="798" d="M-10 -164q210 79 257 281q32 130 32 491v914h320v-909q0 -33 1 -139v-89.5v-58.5q-1 -44 -5.5 -114t-14.5 -121q-19 -100 -78 -183t-135 -132.5t-154 -77.5t-146 -30z" />
<glyph unicode="K" horiz-adv-x="1444" d="M188 0v1522h318v-674l535 674h350l-514 -644q65 -95 215 -342t254 -426l65 -110h-354q-8 11 -15.5 25t-20.5 39t-27 49q-155 278 -331 533l-157 -177v-469h-318z" />
<glyph unicode="L" horiz-adv-x="1120" d="M188 0v1522h318v-1280h548v-242h-866z" />
<glyph unicode="M" horiz-adv-x="1886" d="M70 -1l162 1523h447l203 -800l77 -336l58 336l183 800h434l182 -1522h-312l-75 816l-27 466l-112 -466l-218 -831h-252l-241 831l-113 466l-36 -466l-65 -816z" />
<glyph unicode="N" horiz-adv-x="1620" d="M188 0v1522h295l567 -895l115 -228l-29 366v757h296v-1522h-319l-543 861l-121 243l35 -363v-741h-296z" />
<glyph unicode="O" horiz-adv-x="1595" d="M98 769q4 193 59 340t152.5 238.5t225.5 138.5t286 52h24q192 0 339 -90q156 -96 236 -274q77 -170 77 -389v-22q-4 -193 -57 -341.5t-147.5 -242.5t-220.5 -143t-281 -52h-17q-205 0 -358 95q-160 99 -241 277q-77 170 -77 391v22zM427 758q0 -153 40 -272.5t125 -192 t206 -72.5q175 0 272.5 137t97.5 415q0 234 -91 378.5t-263 144.5q-65 0 -121.5 -18t-106 -59t-84.5 -102.5t-55 -153t-20 -205.5z" />
<glyph unicode="P" horiz-adv-x="1359" d="M188 0v1522h96q87 0 233 8t216 8q271 0 413.5 -126t142.5 -399q0 -263 -157.5 -407.5t-451.5 -144.5q-104 0 -174 2v-463h-318zM506 710q65 -8 166 -8q301 0 301 315q0 145 -78 221q-72 70 -205 69h-21q-117 -4 -163 -14v-583z" />
<glyph unicode="Q" horiz-adv-x="1595" d="M98 769q4 193 59 340t152.5 238.5t225.5 138.5t286 52h24q192 0 339 -90q156 -96 236 -274q77 -170 77 -389v-22q-7 -318 -142 -507.5t-368 -247.5q42 -56 127 -72.5t234 -16.5q44 0 107 7t95 18v-219q-24 -17 -98.5 -34t-141.5 -17q-116 0 -208 15t-171 50t-134 97 t-83 150q-291 21 -457 236q-159 205 -159 520v27zM427 758q0 -153 40 -272.5t125 -192t206 -72.5q175 0 272.5 137t97.5 415q0 234 -91 378.5t-263 144.5q-65 0 -121.5 -18t-106 -59t-84.5 -102.5t-55 -153t-20 -205.5z" />
<glyph unicode="R" horiz-adv-x="1435" d="M188 0v1522h147q31 0 155 8t249 8q90 0 167 -13t148.5 -46t122 -84t80.5 -132t30 -185q0 -341 -253 -443q55 -46 102 -135.5t96.5 -208.5t85.5 -181l63 -110h-354q-14 20 -56 110q-22 45 -46 116t-42.5 127t-43 110t-57.5 84.5t-75 31.5q-68 -4 -201 -4v-575h-318z M506 804q50 -6 209 -6q135 0 199 77t64 194q0 50 -10.5 87t-38.5 72t-85.5 54t-142.5 19q-119 0 -195 -18v-479z" />
<glyph unicode="S" horiz-adv-x="1207" d="M139 1128q0 109 42 190t117 128t168 69.5t204 22.5q130 0 236.5 -28t156.5 -60l-52 -247q-153 97 -332 97q-228 0 -228 -156q0 -33 10.5 -59.5t27.5 -48t53.5 -47t72 -45.5t99.5 -54q59 -31 99 -53.5t88 -53.5t78.5 -58t62.5 -63t49.5 -73t29 -83t11.5 -98 q0 -202 -142.5 -313t-380.5 -111q-137 0 -272 30t-185 60l45 255q73 -40 176 -68t216 -28q123 0 173 37.5t50 117.5q0 78 -56.5 127.5t-238.5 139.5q-61 30 -109.5 59.5t-100.5 73.5t-87.5 91.5t-58 112t-22.5 136.5z" />
<glyph unicode="T" horiz-adv-x="1250" d="M30 1278v244h1190v-244h-434v-1278h-320v1278h-436z" />
<glyph unicode="U" horiz-adv-x="1525" d="M150 653l2 869h315l-2 -852q0 -131 18.5 -217t59.5 -132.5t93.5 -64.5t130.5 -18q75 0 127.5 20t92 68.5t58 133.5t18.5 210v852h313v-882q0 -321 -156 -488.5t-462 -167.5q-134 0 -238 31.5t-173.5 88t-114 140.5t-63.5 184.5t-19 224.5z" />
<glyph unicode="V" horiz-adv-x="1386" d="M-5 1522h341l284 -831l81 -290l82 290l269 831h339l-560 -1528h-270z" />
<glyph unicode="W" horiz-adv-x="1973" d="M5 1522h319l188 -894l53 -370l61 370l220 894h284l234 -894l62 -354l51 354l173 894h318l-398 -1538h-326l-214 850l-49 328l-45 -329l-219 -849h-304z" />
<glyph unicode="X" horiz-adv-x="1376" d="M32 0l459 785l-448 737l348 1l234 -403l78 -137l75 137l220 402h336l-454 -770l464 -752h-353l-244 425l-74 131l-73 -131l-236 -425h-332z" />
<glyph unicode="Y" horiz-adv-x="1241" d="M-50 1522h350l280 -590l44 -114l38 114l288 590h341l-511 -989v-533h-319v535z" />
<glyph unicode="Z" horiz-adv-x="1306" d="M54 84l686 1126l58 81h-668v231h1067l38 -81l-672 -1106l-73 -93h706v-242h-1102z" />
<glyph unicode="[" horiz-adv-x="799" d="M145 60v1426q0 149 38 200t152 51q74 0 127.5 -3t129.5 -11t104 -10v-163h-268v-1570l268 -2v-145q-14 -1 -51 -5.5t-49.5 -5.5t-43 -4t-48.5 -4t-47 -2.5t-58.5 -2t-63.5 -0.5q-114 0 -152 51t-38 200z" />
<glyph unicode="\" horiz-adv-x="864" d="M14 1599h255l561 -1962h-255z" />
<glyph unicode="]" horiz-adv-x="799" d="M93 -22l268 2v1570h-268v163q28 2 104 10t129.5 11t127.5 3q114 0 152 -51t38 -200v-1426q0 -149 -38 -200t-152 -51q-34 0 -63.5 0.5t-58.5 2t-47 2.5t-48.5 4t-43 4t-49.5 5.5t-51 5.5v145z" />
<glyph unicode="^" horiz-adv-x="1373" d="M153 490l420 1041h227l420 -1041h-281l-253 673l-252 -673h-281z" />
<glyph unicode="_" horiz-adv-x="1702" d="M-35 -241h1772v-168h-1772v168z" />
<glyph unicode="`" horiz-adv-x="666" d="M55 1634l215 174q61 -104 156 -220t185 -199l-149 -137q-78 35 -219.5 159.5t-187.5 222.5z" />
<glyph unicode="a" horiz-adv-x="1223" d="M102 355q0 196 199 285q149 66 457 66v72q0 64 -17 93t-63 41t-146 12q-48 0 -146 -24.5t-168 -56.5l-69 200q67 40 201.5 79.5t256.5 39.5q124 0 207 -18.5t142.5 -65.5t86.5 -128.5t27 -204.5v-761h-182q-34 0 -51.5 2.5t-34.5 12.5t-24 31.5t-7 57.5v8 q-122 -112 -297 -112q-167 0 -269.5 104t-102.5 267zM424 357q0 -80 43.5 -121t113.5 -41q50 0 105 20.5t72 42.5v272q-57 0 -128.5 -12.5t-106.5 -28.5q-45 -17 -72 -46t-27 -86z" />
<glyph unicode="b" horiz-adv-x="1340" d="M168 64v1597h312v-437l-8 -188q125 120 319 120q93 0 173.5 -33.5t144 -99t100 -171.5t36.5 -240q0 -284 -165 -459.5t-431 -175.5q-141 0 -295.5 32t-185.5 55zM480 232q36 -39 176 -39q114 0 187.5 105t74.5 289v12q0 89 -14 151q-16 66 -46.5 103.5t-70 53.5t-92.5 16 q-62 0 -119.5 -20t-95.5 -51v-620z" />
<glyph unicode="c" horiz-adv-x="1048" d="M95 556q0 102 21.5 191.5t67.5 165t112.5 129.5t160 84t207.5 30q101 0 183 -17.5t113 -40.5l-39 -241q-83 44 -225 44q-52 0 -100.5 -16.5t-91.5 -50t-70 -95.5t-29 -144v-21q0 -162 73 -248q78 -92 206 -91q75 0 143.5 13.5t104.5 33.5l45 -185q-53 -51 -148 -82 t-202 -31q-130 0 -232.5 43.5t-167.5 120.5t-98.5 180.5t-33.5 227.5z" />
<glyph unicode="d" horiz-adv-x="1339" d="M95 533q0 283 159.5 453t420.5 170q102 0 187 -32l-3 100v438h312v-1678h-212q-38 0 -56.5 11.5t-18.5 46.5v77q-132 -135 -335 -135q-92 0 -173 34.5t-144.5 100.5t-100 172.5t-36.5 241.5zM422 559v-6q0 -177 56 -251q58 -76 167 -75q61 0 118.5 17t95.5 43v614 q-47 33 -175 33q-116 0 -188.5 -96t-73.5 -279z" />
<glyph unicode="e" horiz-adv-x="1190" d="M95 574q0 167 62.5 297.5t187 207t295.5 77.5h7q87 0 163 -23q78 -24 142.5 -74.5t102 -140t38.5 -209.5q0 -144 -11 -214h-675q9 -141 89 -210t216 -69q65 0 157.5 17.5t135.5 41.5l51 -177q-59 -48 -177 -81t-246 -33q-259 0 -398.5 155t-139.5 435zM413 668h390 q1 22 1 42q0 100 -33 156q-40 68 -141 68q-92 0 -146.5 -61t-70.5 -205z" />
<glyph unicode="f" horiz-adv-x="858" d="M82 924v182l155 34v109q0 97 25.5 173t67 124t98.5 80t115 44.5t120 12.5q59 0 119.5 -7.5t82.5 -14.5v-222q-50 24 -156 24q-73 0 -116.5 -53t-43.5 -154v-116h266v-216h-266v-924h-312v924h-155z" />
<glyph unicode="g" horiz-adv-x="1305" d="M91 -183q0 79 48 140.5t128 96.5q-49 25 -71 72q-22 46 -22 97q0 70 43 133q42 62 139 102q-109 47 -171.5 130t-62.5 187q0 192 130 285t364 96h16q221 0 345 -83q78 67 184 67h127v-226h-189q20 -60 20 -130q0 -183 -132.5 -279t-374.5 -96q-52 0 -100 6 q-42 -35 -42 -92q0 -48 30 -64t105 -16h190q107 0 188 -21t127.5 -53t75.5 -79.5t38.5 -92.5t9.5 -99q0 -98 -50 -178.5t-134.5 -131.5t-191.5 -78q-101 -26 -209 -26h-16q-260 3 -401 88t-141 245zM401 -114q0 -94 58.5 -156t185.5 -62q281 0 281 168q0 44 -8.5 71 t-34.5 50t-78.5 33t-136.5 10h-163q-22 0 -62 2q-42 -38 -42 -116zM423 779q0 -84 50 -131.5t144 -47.5q98 0 152.5 38t54.5 137q0 188 -193 188q-97 0 -152.5 -41.5t-55.5 -142.5z" />
<glyph unicode="h" horiz-adv-x="1351" d="M168 0v1662h312v-438l-17 -203q64 53 161.5 94t186.5 44h20q177 1 265 -99q92 -106 93 -350v-710h-312v648q0 140 -38 195q-36 52 -124 52h-10q-50 -1 -114 -22.5t-111 -63.5v-809h-312z" />
<glyph unicode="i" horiz-adv-x="660" d="M148 1478q0 76 60 131.5t139 55.5q82 0 131 -47.5t49 -122.5q0 -77 -59 -132.5t-139 -55.5q-77 0 -129 48.5t-52 122.5zM174 0v1140h312v-1140h-312z" />
<glyph unicode="j" horiz-adv-x="644" d="M-104 -282q14 -7 53 -14.5t64 -7.5q90 0 125.5 67t35.5 238v1139h312v-1058q0 -308 -106.5 -448.5t-308.5 -140.5q-31 0 -94 8.5t-81 15.5v201zM139 1478q0 76 60 131.5t139 55.5q82 0 131 -47.5t49 -122.5q0 -77 -59 -132.5t-139 -55.5q-77 0 -129 48.5t-52 122.5z" />
<glyph unicode="k" horiz-adv-x="1238" d="M168 0v1661h312v-684l-11 -287l386 450h353l-407 -444l447 -696h-355l-296 475l-122 -133l5 -129v-213h-312z" />
<glyph unicode="l" horiz-adv-x="672" d="M180 0v1662h312v-1662h-312z" />
<glyph unicode="m" horiz-adv-x="2047" d="M174 0v1140h283l6 -122q69 52 172 95.5t199 46.5h17q199 0 277 -138q67 51 171.5 94t214.5 44h7q180 0 271 -100q93 -102 93 -343v-717h-312v649q1 143 -33 196q-32 51 -126 51h-7q-56 -1 -117.5 -25t-106.5 -60q5 -53 5 -104v-707h-312v648q0 142 -34 196 q-33 52 -123 52h-7q-49 -1 -114 -23t-112 -64v-809h-312z" />
<glyph unicode="n" horiz-adv-x="1352" d="M174 0v1140h283l6 -122q69 52 172 95t199 46h20q170 0 250 -96q86 -102 86 -348v-715h-312v648q0 143 -36 197q-34 51 -122 51h-10q-50 -1 -113 -23t-111 -64v-809h-312z" />
<glyph unicode="o" horiz-adv-x="1302" d="M96 594q2 135 45 242t118.5 176.5t178 106.5t224.5 37q146 0 254.5 -49t171 -135t91.5 -192q27 -100 27 -218v-16q-4 -267 -159.5 -414.5t-405.5 -147.5q-146 0 -254.5 49t-170.5 135t-92 192q-28 100 -28 218v16zM419 586q0 -105 22.5 -188t75.5 -138t131 -56h4 q231 0 231 357q0 75 -13 140t-39 118t-71.5 83.5t-104.5 31.5h-3q-120 0 -176 -88q-58 -90 -57 -260z" />
<glyph unicode="p" horiz-adv-x="1340" d="M168 -506v1646h291v-116q132 132 332 132q93 0 173.5 -33.5t144 -99t100 -171.5t36.5 -240q0 -284 -159.5 -456t-420.5 -172q-102 0 -189 32l4 -155v-367h-312zM480 249q51 -46 176 -46q114 0 187.5 102t74.5 282v12q0 88 -14 151q-16 66 -46.5 103.5t-70 53.5t-92.5 16 q-62 0 -119.5 -20t-95.5 -51v-603z" />
<glyph unicode="q" horiz-adv-x="1340" d="M95 533q0 283 159.5 453t420.5 170q148 0 272 -50l225 34v-1646h-312v367l6 240q-124 -117 -317 -117q-92 0 -173 34.5t-144.5 100.5t-100 172.5t-36.5 241.5zM422 559v-6q0 -176 56 -251q58 -75 167 -75q128 0 215 61v613q-47 33 -176 33q-116 0 -188.5 -96t-73.5 -279z " />
<glyph unicode="r" horiz-adv-x="926" d="M158 0v1140h277l14 -156q39 69 130 122t193 53q65 0 89 -14v-301q-51 28 -137 28q-144 0 -254 -103v-769h-312z" />
<glyph unicode="s" horiz-adv-x="1048" d="M115 72l32 232q32 -27 130.5 -58.5t196.5 -31.5h8q87 0 128 21q43 22 43 74q0 48 -59.5 87t-187.5 81q-152 51 -220 137q-67 85 -67 210q0 160 128 246q127 86 332 86q109 0 195 -21t126 -44l-34 -240q-34 31 -109.5 54t-146.5 23q-100 0 -146 -21q-47 -21 -47 -71 t46 -82q47 -32 177 -77q173 -59 246.5 -138t73.5 -205q0 -173 -118.5 -261.5t-328.5 -88.5q-118 0 -233 27.5t-165 60.5z" />
<glyph unicode="t" horiz-adv-x="913" d="M74 924v169q104 30 132 48q36 22 52 60q21 50 75 199h190v-260h309v-216h-309v-458q0 -70 5 -114.5t13 -72t25.5 -40.5t35.5 -16.5t51 -3.5q42 0 96.5 14.5t80.5 33.5l38 -175q-47 -42 -140.5 -75t-201.5 -33q-170 0 -242.5 81.5t-72.5 273.5v585h-137z" />
<glyph unicode="u" horiz-adv-x="1326" d="M162 474v666h312v-663q0 -81 10 -132t33.5 -77.5t53 -35.5t78.5 -9q50 0 106 21t85 44v852h312v-1156h-206q-40 0 -58 11.5t-18 46.5v51q-65 -46 -158.5 -77.5t-174.5 -31.5q-80 0 -141 15.5t-101.5 47t-67 72t-40.5 99t-19.5 118t-5.5 138.5z" />
<glyph unicode="v" horiz-adv-x="1191" d="M17 1140h337l174 -560l72 -278l70 278l174 560h330l-435 -1156h-289z" />
<glyph unicode="w" horiz-adv-x="1757" d="M18 1140h312l142 -551l51 -276l58 275l165 552h291l165 -551l51 -275l52 272l132 554h302l-356 -1156h-278l-182 607l-44 218l-45 -218l-179 -607h-289z" />
<glyph unicode="x" horiz-adv-x="1220" d="M36 0l401 577l-401 563h353l196 -297l35 -60l31 61l188 296h352l-405 -558l413 -582h-357l-206 321l-33 52l-26 -54l-184 -319h-357z" />
<glyph unicode="y" horiz-adv-x="1188" d="M17 1140h338l173 -609l83 -330l77 330l139 609h335l-355 -1170q-60 -196 -160 -308t-223 -148q-26 -8 -76.5 -14.5t-75.5 -6.5q-26 0 -85 6.5t-67 12.5v253q18 -6 57.5 -13t55.5 -7q25 0 39 0.5t40.5 3.5t43.5 9.5t41 18t42 31t37 45t34.5 63.5t27.5 84h-134z" />
<glyph unicode="z" horiz-adv-x="1108" d="M76 83l496 757l58 83h-488l2 217h866l35 -95l-484 -745l-61 -84h529v-216h-911z" />
<glyph unicode="{" horiz-adv-x="952" d="M68 682v191q57 6 112 20.5t99.5 43t44.5 63.5v486q0 146 51.5 208.5t168.5 62.5q124 0 312 -24v-171h-262v-571q0 -60 -39 -104q-46 -53 -206 -111q154 -54 206 -112q39 -44 39 -102v-582h262v-156q-125 -35 -312 -35q-117 0 -168.5 62.5t-51.5 208.5v487q0 34 -44 64.5 t-101 48t-111 22.5z" />
<glyph unicode="|" horiz-adv-x="865" d="M305 -187v1967h255v-1967h-255z" />
<glyph unicode="}" horiz-adv-x="952" d="M86 -20h262v582q0 58 39 102q52 58 206 112q-160 58 -206 111q-39 44 -39 104v571h-262v171q188 24 312 24q117 0 168.5 -62.5t51.5 -208.5v-486q0 -35 44.5 -63.5t99.5 -43t112 -20.5v-191q-54 -5 -111 -22.5t-101 -48t-44 -64.5v-487q0 -146 -51.5 -208.5t-168.5 -62.5 q-187 0 -312 35v156z" />
<glyph unicode="~" horiz-adv-x="1448" d="M208 830q10 31 39 68t71 71.5t99.5 57.5t115.5 23t105.5 -16t80 -39t62 -46.5t65.5 -39.5t76 -16q105 0 201 105l116 -138q-23 -77 -117.5 -144t-213.5 -67q-57 0 -102 16.5t-74.5 39.5t-56.5 46.5t-62.5 40t-78.5 16.5q-44 0 -84 -18.5t-61.5 -37.5t-50.5 -50z" />
<glyph />
<glyph unicode="&#xa1;" horiz-adv-x="641" d="M116 1153q-1 87 58.5 150t144.5 63q80 0 132.5 -55t53.5 -138q2 -85 -59 -148.5t-144 -63.5q-85 0 -135 54t-51 138zM133 -436l34 1225h267l46 -1225h-347z" />
<glyph unicode="&#xa2;" horiz-adv-x="1187" d="M144 556q0 235 115 395.5t338 195.5l6 230h171l-5 -223q83 -4 148 -20.5t92 -35.5l-39 -241q-83 44 -225 44q-52 0 -100.5 -16.5t-91.5 -50t-70 -95.5t-29 -144q-5 -177 73 -268.5t206 -91.5q75 0 143.5 13.5t104.5 33.5l45 -185q-96 -92 -287 -110l-3 -203h-172l4 208 q-206 33 -315 185.5t-109 378.5z" />
<glyph unicode="&#xa3;" horiz-adv-x="1576" d="M114 116q0 79 76 128t191 52q19 26 27 99.5t8 139.5v182h-176v181h176v127q0 113 32.5 206t95.5 162t162.5 107t227.5 38q218 0 367 -97l-126 -229q-106 82 -212 82q-38 0 -64.5 -4t-60 -22.5t-53.5 -52.5t-34.5 -98t-14.5 -154v-65h310v-181h-310v-163q0 -121 -28 -191 t-82 -118q29 -6 90 -22t110.5 -23.5t111.5 -7.5q116 0 171 41.5t55 114.5q0 50 -18.5 90t-44.5 58l211 110q25 -14 44 -29.5t44 -45.5t39 -77t14 -106q0 -172 -116.5 -269t-342.5 -97q-99 0 -188.5 17.5t-141.5 38t-107 37t-94 15.5q-34 -38 -92.5 -68t-114.5 -30 q-55 0 -98.5 31t-43.5 93z" />
<glyph unicode="&#xa4;" horiz-adv-x="1544" d="M200 314l195 198q-79 117 -79 261q0 142 77 257l-192 197l139 147l200 -206q103 61 224 61t226 -62l213 214l141 -147l-206 -208q76 -114 76 -253q0 -142 -78 -258l195 -199l-140 -145l-203 205q-102 -59 -224 -59q-119 0 -221 58l-202 -205zM538 773q0 -95 67.5 -165.5 t160.5 -70.5t159.5 70.5t66.5 165.5t-66.5 165.5t-159.5 70.5t-160.5 -70.5t-67.5 -165.5z" />
<glyph unicode="&#xa5;" horiz-adv-x="1576" d="M158 1522h323l240 -420l68 -141l68 143l255 418h325l-422 -671h266v-192h-347v-198h347v-192h-347v-269h-290v269h-358v192h358v198h-358v192h290z" />
<glyph unicode="&#xa6;" horiz-adv-x="865" d="M305 -186v806h255v-806h-255zM305 964v816h255v-816h-255z" />
<glyph unicode="&#xa7;" horiz-adv-x="1402" d="M203 767q0 162 165 297q-114 104 -114 258q0 92 44 162.5t115.5 110t151 59t162.5 19.5q241 0 366 -73l-42 -225q-106 76 -306 75q-192 -2 -192 -128q0 -43 36.5 -79.5t94.5 -66.5t128 -61.5t140 -71.5t128 -87.5t94.5 -119t36.5 -158.5q0 -149 -128 -279q89 -96 89 -239 q0 -74 -30 -134.5t-79 -100.5t-114 -67t-132 -39t-136 -12q-130 0 -242 28.5t-164 64.5l42 225q48 -37 139 -66.5t207 -28.5q210 2 210 135q0 31 -23 58t-61.5 48t-89 42t-106 43.5t-111 48t-106 60t-89 76t-61.5 99.5t-23 127zM471 818q0 -50 26 -88.5t76.5 -67.5 t100.5 -49.5t124.5 -49t122.5 -51.5q28 68 28 115q0 43 -19 80.5t-47.5 63.5t-75.5 53.5t-87.5 45.5t-100.5 45t-99 47q-49 -83 -49 -144z" />
<glyph unicode="&#xa8;" horiz-adv-x="974" d="M70 1478q0 75 54.5 130t130.5 55q80 0 122 -46.5t42 -121.5q0 -77 -53 -131t-130 -54q-75 0 -120.5 47t-45.5 121zM555 1478q0 75 54.5 130t130.5 55q80 0 122 -46.5t42 -121.5q0 -77 -53 -131t-130 -54q-75 0 -120.5 47t-45.5 121z" />
<glyph unicode="&#xa9;" horiz-adv-x="2093" d="M176 963q0 144 43.5 277.5t123.5 241.5t186.5 189t240 125t276.5 44q179 0 340.5 -69t277.5 -186.5t184.5 -280t68.5 -341.5q0 -180 -68.5 -343t-184.5 -281t-277.5 -187.5t-340.5 -69.5q-120 0 -233 31.5t-208.5 88.5t-175.5 138t-135.5 178t-86.5 211t-31 234zM318 963 q0 -205 93.5 -377t261.5 -273.5t373 -101.5t373 101.5t261.5 273.5t93.5 377t-93.5 376.5t-261.5 273t-373 101.5t-373 -101.5t-261.5 -273t-93.5 -376.5zM604 950q-1 107 31.5 198t94 158t156.5 105t213 38q80 0 148 -14t102 -33l-45 -206q-33 24 -93 41t-119 17 q-112 0 -182.5 -70t-71.5 -190q-1 -165 70.5 -242.5t195.5 -77.5q118 0 225 64l48 -159q-52 -43 -142.5 -73.5t-185.5 -30.5q-132 0 -234.5 65t-156 172.5t-54.5 237.5z" />
<glyph unicode="&#xaa;" horiz-adv-x="1067" d="M120 940q0 100 52 168t140 103q149 55 361 55v35q0 77 -38.5 101.5t-136.5 24.5q-66 0 -162.5 -26t-132.5 -51l-56 155q34 31 162 71t237 40q197 0 292 -70.5t95 -238.5v-630h-130q-70 0 -86 7q-32 13 -32 68v13q-33 -35 -112 -66.5t-160 -31.5q-136 0 -214.5 74.5 t-78.5 198.5zM375 958q0 -48 35 -74t87 -26q55 0 106 17t70 32v213q-79 0 -130.5 -6t-92.5 -28q-42 -24 -58.5 -54.5t-16.5 -73.5z" />
<glyph unicode="&#xab;" horiz-adv-x="1998" d="M235 492v243l656 422l75 -216l-431 -327l431 -324l-75 -214zM1018 492v243l656 422l75 -216l-431 -327l431 -324l-75 -214z" />
<glyph unicode="&#xac;" horiz-adv-x="1480" d="M245 639v213h990v-529h-244v316h-746z" />
<glyph unicode="&#xad;" horiz-adv-x="1360" d="M255 644v245h850v-245h-850z" />
<glyph unicode="&#xae;" horiz-adv-x="2093" d="M172 962q0 179 69 341.5t185.5 280t278.5 187t341 69.5t341 -69.5t279 -187t186 -280t69 -341.5q0 -180 -69 -343t-186 -281t-279 -187.5t-341 -69.5t-341 69.5t-278.5 187.5t-185.5 281t-69 343zM314 962q0 -153 56.5 -291.5t153.5 -239.5t233 -160.5t289 -59.5 t289 59.5t233 160.5t153.5 239.5t56.5 291.5q0 204 -95.5 376t-264 273t-372.5 101t-372.5 -101t-264 -273t-95.5 -376zM709 481v963h89q35 0 113 2.5t148 2.5q174 0 264.5 -75.5t90.5 -199.5q0 -258 -190 -317q34 -17 64 -52.5t47 -66.5t42 -82t39 -75q40 -66 66 -99h-246 q-13 13 -51 86q-10 19 -30 68.5t-35 81.5t-44.5 66.5t-65.5 47.5q-13 -1 -89 -1v-350h-212zM921 987q34 -7 118 -7q156 0 156 165q0 73 -40 109t-135 35q-66 0 -99 -11v-291z" />
<glyph unicode="&#xaf;" horiz-adv-x="701" d="M55 1420v206h591v-206h-591z" />
<glyph unicode="&#xb0;" horiz-adv-x="957" d="M118 1278q0 153 102.5 254.5t257.5 101.5q151 0 255.5 -103t104.5 -253q0 -154 -102.5 -255.5t-257.5 -101.5q-150 0 -255 103.5t-105 253.5zM306 1278q0 -76 50 -128.5t122 -52.5q74 0 123.5 51.5t49.5 129.5q0 76 -50.5 128t-122.5 52q-74 0 -123 -51t-49 -129z" />
<glyph unicode="&#xb1;" horiz-adv-x="1403" d="M213 656v237h209l162 -7l-6 187v217h246v-217l-7 -187l151 7h222v-237h-222l-151 6l7 -188v-214h-246v214l6 188l-162 -6h-209zM243 0v198h909v-198h-909z" />
<glyph unicode="&#xb2;" horiz-adv-x="1234" d="M156 1517q50 79 175 142.5t271 63.5q103 0 182 -28.5t122.5 -74t65 -95.5t21.5 -101q0 -276 -395 -523l448 20v-241h-817l-43 154q48 25 111 66.5t134.5 99.5t131 118.5t98.5 127t39 120.5q0 153 -165 153q-81 0 -145.5 -37.5t-125.5 -113.5z" />
<glyph unicode="&#xb3;" horiz-adv-x="1234" d="M248 1600q56 47 167 80t197 33q187 0 278 -67t91 -176q0 -83 -41.5 -150.5t-147.5 -124.5q116 -6 183 -76t67 -163q0 -164 -118.5 -266t-352.5 -102q-61 0 -112.5 8t-107 23t-62.5 16l-6 184q132 -31 245 -31q126 1 183 40t57 115q0 51 -41.5 88.5t-133.5 53.5l-159 -33 l1 185q70 10 125 23q73 22 117.5 65t43.5 97q-1 49 -42 74t-116 25q-122 0 -249 -78z" />
<glyph unicode="&#xb4;" horiz-adv-x="665" d="M55 1389q197 185 341 419l214 -174q-40 -93 -186 -221.5t-220 -160.5z" />
<glyph unicode="&#xb5;" horiz-adv-x="1404" d="M181 -371v1511h312v-656q0 -137 46.5 -194.5t157.5 -57.5q43 0 90.5 19.5t81.5 48.5v840h312v-859q0 -76 43 -76q37 0 82 27l31 -145q-19 -28 -90.5 -66.5t-163.5 -38.5q-145 0 -151 138q-93 -136 -264 -136q-159 0 -235 68l30 -423h-282z" />
<glyph unicode="&#xb6;" horiz-adv-x="1410" d="M62 1248q0 226 149.5 344.5t446.5 118.5q59 0 275.5 -9.5t268.5 -10.5v-1691h-252v1522h-202v-1522h-252v777q-434 0 -434 471z" />
<glyph unicode="&#xb7;" horiz-adv-x="641" d="M126 779q-1 85 59.5 148.5t144.5 63.5q85 0 134.5 -54.5t50.5 -137.5q2 -87 -58 -150t-144 -63q-80 0 -133 55t-54 138z" />
<glyph unicode="&#xb8;" horiz-adv-x="518" d="M33 -436l20 165q22 -14 77 -14q51 0 84.5 38t36.5 112q7 99 -31 165l137 4l49 -4q33 -31 49 -102t13 -149q-4 -122 -75.5 -182.5t-179.5 -60.5q-47 0 -104.5 8.5t-75.5 19.5z" />
<glyph unicode="&#xb9;" horiz-adv-x="1066" d="M175 1516q83 24 206 89t164 99l145 -25v-1006h-279v729q-134 -36 -196 -47z" />
<glyph unicode="&#xba;" horiz-adv-x="1065" d="M83 1156q1 97 29 176.5t73 131.5t106 87.5t126 51t135 15.5q210 0 321.5 -131.5t108.5 -350.5q-2 -122 -40 -214t-102.5 -146t-142.5 -80.5t-168 -26.5q-217 0 -332.5 131t-113.5 356zM350 1156q0 -139 48.5 -218t142.5 -78q91 2 132.5 66t41.5 208q0 141 -43 217.5 t-131 75.5q-94 -2 -142.5 -65.5t-48.5 -205.5z" />
<glyph unicode="&#xbb;" horiz-adv-x="1998" d="M239 290l431 324l-431 327l75 216l656 -422v-243l-656 -416zM1022 290l431 324l-431 327l75 216l656 -422v-243l-656 -416z" />
<glyph unicode="&#xbc;" horiz-adv-x="2559" d="M207 1516q83 24 206 89t164 99l145 -25v-1006h-279v729q-134 -36 -196 -47zM771 0l539 1530h243l-542 -1530h-240zM1343 289l498 889h68l187 -92l-398 -632l-42 -67h285l25 260h230v-260h164v-192h-164v-272h-256v272h-545z" />
<glyph unicode="&#xbd;" horiz-adv-x="2559" d="M208 1516q83 24 206 89t164 99l145 -25v-1006h-279v729q-134 -36 -196 -47zM771 0l539 1530h243l-542 -1530h-240zM1478 835q50 79 175 142.5t271 63.5q103 0 182 -28.5t122.5 -74t65 -95.5t21.5 -101q0 -276 -395 -523l448 20v-241h-817l-43 154q48 25 111 66.5 t134.5 99.5t131 118.5t98.5 127t39 120.5q0 153 -165 153q-81 0 -145.5 -37.5t-125.5 -113.5z" />
<glyph unicode="&#xbe;" horiz-adv-x="2559" d="M114 1600q56 47 167 80t197 33q187 0 278 -67t91 -176q0 -83 -41.5 -150.5t-147.5 -124.5q116 -6 183 -76t67 -163q0 -164 -118.5 -266t-352.5 -102q-61 0 -112.5 8t-107 23t-62.5 16l-6 184q132 -31 245 -31q126 1 183 40t57 115q0 51 -41.5 88.5t-133.5 53.5l-159 -33 l1 185q70 10 125 23q73 22 117.5 65t43.5 97q-1 49 -42 74t-116 25q-122 0 -249 -78zM771 0l539 1530h243l-542 -1530h-240zM1343 289l498 889h68l187 -92l-398 -632l-42 -67h285l25 260h230v-260h164v-192h-164v-272h-256v272h-545z" />
<glyph unicode="&#xbf;" horiz-adv-x="1057" d="M61 129q0 76 23.5 141t61.5 112t84.5 88.5t93.5 79.5t86.5 76t66.5 86t31 102q4 48 -6.5 96.5t-29.5 107.5h238q76 -112 78 -269q1 -63 -20.5 -117t-56.5 -93t-77.5 -75t-85.5 -69.5t-78.5 -69t-57.5 -82t-22 -99.5q0 -106 79.5 -158.5t245.5 -52.5q35 0 65 2t53 5.5 t36.5 6t31 7t20.5 5.5v-232q-33 -20 -106.5 -34.5t-162.5 -14.5q-130 0 -233.5 25t-170 67t-110 101t-61.5 122.5t-16 135.5zM374 1352q-1 79 56.5 136.5t134.5 57.5q74 0 124.5 -50.5t51.5 -125.5q1 -77 -57 -135t-134 -58q-79 0 -127 49.5t-49 125.5z" />
<glyph unicode="&#xc0;" horiz-adv-x="1421" d="M-15 0l562 1538h322l567 -1538h-347l-102 322h-560l-100 -322h-342zM343 1849l217 131q3 -9 17 -27t32.5 -39t44.5 -48.5t49.5 -51t51 -50.5t45 -43.5t36 -34t19.5 -18.5l-146 -125q-67 22 -186.5 122.5t-179.5 183.5zM499 551h415l-165 522l-43 157l-44 -157z" />
<glyph unicode="&#xc1;" horiz-adv-x="1421" d="M-15 0l562 1538h322l567 -1538h-347l-102 322h-560l-100 -322h-342zM499 551h415l-165 522l-43 157l-44 -157zM569 1668q34 31 87.5 83t126.5 129t81 100l217 -131q-69 -89 -182 -185.5t-184 -120.5z" />
<glyph unicode="&#xc2;" horiz-adv-x="1421" d="M-15 0l562 1538h322l567 -1538h-347l-102 322h-560l-100 -322h-342zM327 1649l274 310h220l276 -308l-165 -92l-221 199l-222 -199zM499 551h415l-165 522l-43 157l-44 -157z" />
<glyph unicode="&#xc3;" horiz-adv-x="1421" d="M-15 0l562 1538h322l567 -1538h-347l-102 322h-560l-100 -322h-342zM277 1731q35 100 113 163t188 63q55 0 100 -20.5t69.5 -44.5t57.5 -44.5t67 -20.5q74 0 155 111l126 -108q-36 -104 -111.5 -166t-186.5 -62q-54 0 -98.5 21t-69 45.5t-59 45.5t-72.5 21 q-72 0 -154 -102zM499 551h415l-165 522l-43 157l-44 -157z" />
<glyph unicode="&#xc4;" horiz-adv-x="1421" d="M-15 0l562 1538h322l567 -1538h-347l-102 322h-560l-100 -322h-342zM272 1778q0 76 54.5 129t132.5 53q81 0 124.5 -44.5t43.5 -119.5q0 -78 -53 -130t-133 -52q-77 0 -123 45t-46 119zM499 551h415l-165 522l-43 157l-44 -157zM796 1778q0 76 54.5 129t132.5 53 q81 0 124 -44.5t43 -119.5q0 -78 -53 -130t-133 -52q-76 0 -122 45t-46 119z" />
<glyph unicode="&#xc5;" horiz-adv-x="1421" d="M-15 0l530 1451q-151 69 -148 248q1 73 31.5 127.5t81.5 84.5t109.5 44t124.5 14q160 0 248.5 -69.5t87.5 -204.5q-1 -171 -150 -241l536 -1454h-347l-102 322h-560l-100 -322h-342zM499 551h415l-165 522l-43 157l-44 -157zM551 1698q0 -62 43 -96.5t114 -34.5 q79 -1 119 25t40 99q0 64 -43.5 97.5t-115.5 34.5q-157 2 -157 -125z" />
<glyph unicode="&#xc6;" horiz-adv-x="1939" d="M-111 0l766 1522h1133v-244h-610v-374h468v-241h-468v-412h675v-251h-993v376h-449l-177 -376h-345zM516 598h344v726z" />
<glyph unicode="&#xc7;" horiz-adv-x="1299" d="M100 757q0 184 58 333.5t159.5 246.5t236.5 149t292 52q99 0 173 -9.5t150.5 -28t90.5 -21.5l-46 -280q-1 1 -18.5 10.5t-24 12.5t-25.5 12t-32 13t-35.5 12t-43.5 11.5t-48 7.5t-57.5 6t-63.5 2q-190 0 -314 -137.5t-124 -371.5q0 -158 54.5 -281.5t160 -194.5 t247.5 -71q96 0 202 31.5t151 64.5l1 -262q-51 -20 -84 -32t-95 -26t-127 -19q38 -81 33 -208q-4 -122 -75.5 -182.5t-179.5 -60.5q-47 0 -104.5 8.5t-75.5 19.5l20 165q22 -14 77 -14q51 0 84.5 38t36.5 112q5 78 -13 126q-298 36 -469.5 242.5t-171.5 523.5z" />
<glyph unicode="&#xc8;" horiz-adv-x="1254" d="M188 0v1522h928v-244h-610v-378h468v-241h-468v-408h675v-251h-993zM332 1849l217 131q3 -9 17 -27t32.5 -39t44.5 -48.5t49.5 -51t51 -50.5t45 -43.5t36 -34t19.5 -18.5l-146 -125q-67 22 -186.5 122.5t-179.5 183.5z" />
<glyph unicode="&#xc9;" horiz-adv-x="1254" d="M188 0v1522h928v-244h-610v-378h468v-241h-468v-408h675v-251h-993zM558 1668q34 31 87.5 83t126.5 129t81 100l217 -131q-69 -89 -182 -185.5t-184 -120.5z" />
<glyph unicode="&#xca;" horiz-adv-x="1254" d="M188 0v1522h928v-244h-610v-378h468v-241h-468v-408h675v-251h-993zM316 1649l274 310h220l276 -308l-165 -92l-221 199l-222 -199z" />
<glyph unicode="&#xcb;" horiz-adv-x="1254" d="M188 0v1522h928v-244h-610v-378h468v-241h-468v-408h675v-251h-993zM261 1778q0 76 54.5 129t132.5 53q81 0 124.5 -44.5t43.5 -119.5q0 -78 -53 -130t-133 -52q-77 0 -123 45t-46 119zM785 1778q0 76 54.5 129t132.5 53q81 0 124 -44.5t43 -119.5q0 -78 -53 -130 t-133 -52q-76 0 -122 45t-46 119z" />
<glyph unicode="&#xcc;" horiz-adv-x="722" d="M-7 1849l217 131q3 -9 17 -27t32.5 -39t44.5 -48.5t49.5 -51t51 -50.5t45 -43.5t36 -34t19.5 -18.5l-146 -125q-67 22 -186.5 122.5t-179.5 183.5zM201 0v1522h320v-1522h-320z" />
<glyph unicode="&#xcd;" horiz-adv-x="722" d="M201 0v1522h320v-1522h-320zM219 1668q34 31 87.5 83t126.5 129t81 100l217 -131q-69 -89 -182 -185.5t-184 -120.5z" />
<glyph unicode="&#xce;" horiz-adv-x="722" d="M-23 1649l274 310h220l276 -308l-165 -92l-221 199l-222 -199zM201 0v1522h320v-1522h-320z" />
<glyph unicode="&#xcf;" horiz-adv-x="722" d="M-78 1778q0 76 54.5 129t132.5 53q81 0 124.5 -44.5t43.5 -119.5q0 -78 -53 -130t-133 -52q-77 0 -123 45t-46 119zM201 0v1522h320v-1522h-320zM446 1778q0 76 54.5 129t132.5 53q81 0 124 -44.5t43 -119.5q0 -78 -53 -130t-133 -52q-76 0 -122 45t-46 119z" />
<glyph unicode="&#xd0;" horiz-adv-x="1554" d="M69 694v201h119v627h151q35 0 155.5 8t213.5 8q375 0 560.5 -190t185.5 -547q0 -386 -207.5 -603t-562.5 -214q-76 1 -188 8.5t-154 7.5h-154v694h-119zM509 246q68 -18 204 -18q190 2 297.5 133.5t107.5 405.5q0 196 -49 313.5t-143.5 167.5t-247.5 50q-28 0 -60.5 -2.5 t-65 -6.5t-43.5 -5v-389h337v-201h-337v-448z" />
<glyph unicode="&#xd1;" horiz-adv-x="1622" d="M188 0v1522h295l567 -895l115 -228l-29 366v757h296v-1522h-319l-543 861l-121 243l35 -363v-741h-296zM376 1731q35 100 113 163t188 63q55 0 100 -20.5t69.5 -44.5t57.5 -44.5t67 -20.5q74 0 155 111l126 -108q-36 -104 -111.5 -166t-186.5 -62q-54 0 -98.5 21 t-69 45.5t-59 45.5t-72.5 21q-72 0 -154 -102z" />
<glyph unicode="&#xd2;" horiz-adv-x="1595" d="M98 769q4 193 59 340t152.5 238.5t225.5 138.5t286 52q207 6 363 -90t236.5 -274t76.5 -411q-4 -193 -57 -341.5t-147.5 -242.5t-220.5 -143t-281 -52q-215 -4 -375 95t-241 277.5t-77 412.5zM427 758q0 -153 40 -272.5t125 -192t206 -72.5q175 0 272.5 137t97.5 415 q0 234 -91 378.5t-263 144.5q-65 0 -121.5 -18t-106 -59t-84.5 -102.5t-55 -153t-20 -205.5zM455 1849l217 131q3 -9 17 -27t32.5 -39t44.5 -48.5t49.5 -51t51 -50.5t45 -43.5t36 -34t19.5 -18.5l-146 -125q-67 22 -186.5 122.5t-179.5 183.5z" />
<glyph unicode="&#xd3;" horiz-adv-x="1595" d="M98 769q4 193 59 340t152.5 238.5t225.5 138.5t286 52q207 6 363 -90t236.5 -274t76.5 -411q-4 -193 -57 -341.5t-147.5 -242.5t-220.5 -143t-281 -52q-215 -4 -375 95t-241 277.5t-77 412.5zM427 758q0 -153 40 -272.5t125 -192t206 -72.5q175 0 272.5 137t97.5 415 q0 234 -91 378.5t-263 144.5q-65 0 -121.5 -18t-106 -59t-84.5 -102.5t-55 -153t-20 -205.5zM681 1668q34 31 87.5 83t126.5 129t81 100l217 -131q-69 -89 -182 -185.5t-184 -120.5z" />
<glyph unicode="&#xd4;" horiz-adv-x="1595" d="M98 769q4 193 59 340t152.5 238.5t225.5 138.5t286 52q207 6 363 -90t236.5 -274t76.5 -411q-4 -193 -57 -341.5t-147.5 -242.5t-220.5 -143t-281 -52q-215 -4 -375 95t-241 277.5t-77 412.5zM427 758q0 -153 40 -272.5t125 -192t206 -72.5q175 0 272.5 137t97.5 415 q0 234 -91 378.5t-263 144.5q-65 0 -121.5 -18t-106 -59t-84.5 -102.5t-55 -153t-20 -205.5zM439 1649l274 310h220l276 -308l-165 -92l-221 199l-222 -199z" />
<glyph unicode="&#xd5;" horiz-adv-x="1595" d="M98 769q4 193 59 340t152.5 238.5t225.5 138.5t286 52q207 6 363 -90t236.5 -274t76.5 -411q-4 -193 -57 -341.5t-147.5 -242.5t-220.5 -143t-281 -52q-215 -4 -375 95t-241 277.5t-77 412.5zM389 1731q35 100 113 163t188 63q55 0 100 -20.5t69.5 -44.5t57.5 -44.5 t67 -20.5q74 0 155 111l126 -108q-36 -104 -111.5 -166t-186.5 -62q-54 0 -98.5 21t-69 45.5t-59 45.5t-72.5 21q-72 0 -154 -102zM427 758q0 -153 40 -272.5t125 -192t206 -72.5q175 0 272.5 137t97.5 415q0 234 -91 378.5t-263 144.5q-65 0 -121.5 -18t-106 -59 t-84.5 -102.5t-55 -153t-20 -205.5z" />
<glyph unicode="&#xd6;" horiz-adv-x="1595" d="M98 769q4 193 59 340t152.5 238.5t225.5 138.5t286 52q207 6 363 -90t236.5 -274t76.5 -411q-4 -193 -57 -341.5t-147.5 -242.5t-220.5 -143t-281 -52q-215 -4 -375 95t-241 277.5t-77 412.5zM384 1778q0 76 54.5 129t132.5 53q81 0 124.5 -44.5t43.5 -119.5 q0 -78 -53 -130t-133 -52q-77 0 -123 45t-46 119zM427 758q0 -153 40 -272.5t125 -192t206 -72.5q175 0 272.5 137t97.5 415q0 234 -91 378.5t-263 144.5q-65 0 -121.5 -18t-106 -59t-84.5 -102.5t-55 -153t-20 -205.5zM908 1778q0 76 54.5 129t132.5 53q81 0 124 -44.5 t43 -119.5q0 -78 -53 -130t-133 -52q-76 0 -122 45t-46 119z" />
<glyph unicode="&#xd7;" horiz-adv-x="1380" d="M168 408l359 368l-359 384l171 160l354 -378l351 378l171 -160l-359 -383l356 -369l-171 -171l-351 368l-351 -368z" />
<glyph unicode="&#xd8;" horiz-adv-x="1595" d="M98 769q4 193 59 340t152.5 238.5t225.5 138.5t286 52q93 3 177 -17l95 260l125 -32l-98 -268q183 -83 282 -271.5t95 -446.5q-4 -193 -57 -341.5t-147.5 -242.5t-220.5 -143t-281 -52q-111 -1 -207 23l-83 -227l-125 32l87 240q-179 89 -274.5 277t-90.5 440zM427 758 q0 -292 134 -436l350 960q-47 14 -97 14q-65 0 -121.5 -18t-106 -59t-84.5 -102.5t-55 -153t-20 -205.5zM670 245q57 -24 128 -24q175 0 272.5 137t97.5 415q0 146 -36.5 261t-107.5 182z" />
<glyph unicode="&#xd9;" horiz-adv-x="1525" d="M150 653l2 869h315l-2 -852q0 -131 18.5 -217t59.5 -132.5t93.5 -64.5t130.5 -18q75 0 127.5 20t92 68.5t58 133.5t18.5 210v852h313v-882q0 -321 -156 -488.5t-462 -167.5q-134 0 -238 31.5t-173.5 88t-114 140.5t-63.5 184.5t-19 224.5zM400 1849l217 131q3 -9 17 -27 t32.5 -39t44.5 -48.5t49.5 -51t51 -50.5t45 -43.5t36 -34t19.5 -18.5l-146 -125q-67 22 -186.5 122.5t-179.5 183.5z" />
<glyph unicode="&#xda;" horiz-adv-x="1525" d="M150 653l2 869h315l-2 -852q0 -131 18.5 -217t59.5 -132.5t93.5 -64.5t130.5 -18q75 0 127.5 20t92 68.5t58 133.5t18.5 210v852h313v-882q0 -321 -156 -488.5t-462 -167.5q-134 0 -238 31.5t-173.5 88t-114 140.5t-63.5 184.5t-19 224.5zM626 1668q34 31 87.5 83 t126.5 129t81 100l217 -131q-69 -89 -182 -185.5t-184 -120.5z" />
<glyph unicode="&#xdb;" horiz-adv-x="1525" d="M150 653l2 869h315l-2 -852q0 -131 18.5 -217t59.5 -132.5t93.5 -64.5t130.5 -18q75 0 127.5 20t92 68.5t58 133.5t18.5 210v852h313v-882q0 -321 -156 -488.5t-462 -167.5q-134 0 -238 31.5t-173.5 88t-114 140.5t-63.5 184.5t-19 224.5zM384 1649l274 310h220l276 -308 l-165 -92l-221 199l-222 -199z" />
<glyph unicode="&#xdc;" horiz-adv-x="1525" d="M150 653l2 869h315l-2 -852q0 -131 18.5 -217t59.5 -132.5t93.5 -64.5t130.5 -18q75 0 127.5 20t92 68.5t58 133.5t18.5 210v852h313v-882q0 -321 -156 -488.5t-462 -167.5q-134 0 -238 31.5t-173.5 88t-114 140.5t-63.5 184.5t-19 224.5zM329 1778q0 76 54.5 129 t132.5 53q81 0 124.5 -44.5t43.5 -119.5q0 -78 -53 -130t-133 -52q-77 0 -123 45t-46 119zM853 1778q0 76 54.5 129t132.5 53q81 0 124 -44.5t43 -119.5q0 -78 -53 -130t-133 -52q-76 0 -122 45t-46 119z" />
<glyph unicode="&#xdd;" horiz-adv-x="1241" d="M-50 1522h350l280 -590l44 -114l38 114l288 590h341l-511 -989v-533h-319v535zM497 1668q34 31 87.5 83t126.5 129t81 100l217 -131q-69 -89 -182 -185.5t-184 -120.5z" />
<glyph unicode="&#xde;" horiz-adv-x="1359" d="M188 0v1522h318v-248q190 13 243 13q252 0 392.5 -120t140.5 -362q0 -260 -150 -404t-430 -144q-106 0 -196 9v-266h-318zM506 510q49 -10 156 -10q54 0 95.5 6.5t82.5 26t67.5 52t43 87.5t16.5 130q0 125 -79 187.5t-229 56.5q-99 -4 -153 -18v-518z" />
<glyph unicode="&#xdf;" horiz-adv-x="1395" d="M54 924v195l156 29q23 111 78.5 195.5t135 135t174.5 75.5t206 25q202 0 321.5 -85t119.5 -226q0 -64 -25.5 -115.5t-61.5 -83.5t-72.5 -59.5t-62 -57.5t-25.5 -63q0 -42 35.5 -83t86 -81.5t101 -89t86 -125.5t35.5 -171q0 -80 -24 -142.5t-64 -101.5t-96 -65t-115.5 -36 t-126.5 -10q-80 0 -145 9.5t-91 23.5v223q25 -16 74 -29.5t107 -13.5q38 0 73 10.5t63 40.5t28 76q0 47 -22 90t-55 74t-71.5 68.5t-71 73.5t-54.5 90t-22 117q0 52 20 95.5t48 75t56 61.5t48 69t20 84q0 73 -42 111.5t-120 38.5q-121 0 -185 -96.5t-64 -324.5v-951h-317 v924h-139z" />
<glyph unicode="&#xe0;" horiz-adv-x="1223" d="M102 355q0 196 199 285q149 66 457 66v72q0 64 -17 93t-63 41t-146 12q-48 0 -146 -24.5t-168 -56.5l-69 200q67 40 201.5 79.5t256.5 39.5q124 0 207 -18.5t142.5 -65.5t86.5 -128.5t27 -204.5v-761h-182q-34 0 -51.5 2.5t-34.5 12.5t-24 31.5t-7 57.5v8 q-122 -112 -297 -112q-167 0 -269.5 104t-102.5 267zM191 1633l215 174q61 -104 156 -220t185 -199l-149 -137q-78 35 -219.5 159.5t-187.5 222.5zM424 357q0 -80 43.5 -121t113.5 -41q50 0 105 20.5t72 42.5v272q-57 0 -128.5 -12.5t-106.5 -28.5q-45 -17 -72 -46t-27 -86z " />
<glyph unicode="&#xe1;" horiz-adv-x="1223" d="M102 355q0 196 199 285q149 66 457 66v72q0 64 -17 93t-63 41t-146 12q-48 0 -146 -24.5t-168 -56.5l-69 200q67 40 201.5 79.5t256.5 39.5q124 0 207 -18.5t142.5 -65.5t86.5 -128.5t27 -204.5v-761h-182q-34 0 -51.5 2.5t-34.5 12.5t-24 31.5t-7 57.5v8 q-122 -112 -297 -112q-167 0 -269.5 104t-102.5 267zM424 357q0 -80 43.5 -121t113.5 -41q50 0 105 20.5t72 42.5v272q-57 0 -128.5 -12.5t-106.5 -28.5q-45 -17 -72 -46t-27 -86zM493 1388q197 185 341 419l214 -174q-40 -93 -186 -221.5t-220 -160.5z" />
<glyph unicode="&#xe2;" horiz-adv-x="1223" d="M102 355q0 196 199 285q149 66 457 66v72q0 64 -17 93t-63 41t-146 12q-48 0 -146 -24.5t-168 -56.5l-69 200q67 40 201.5 79.5t256.5 39.5q124 0 207 -18.5t142.5 -65.5t86.5 -128.5t27 -204.5v-761h-182q-34 0 -51.5 2.5t-34.5 12.5t-24 31.5t-7 57.5v8 q-122 -112 -297 -112q-167 0 -269.5 104t-102.5 267zM231 1325l286 373h223l283 -372l-161 -90l-233 246l-242 -246zM424 357q0 -80 43.5 -121t113.5 -41q50 0 105 20.5t72 42.5v272q-57 0 -128.5 -12.5t-106.5 -28.5q-45 -17 -72 -46t-27 -86z" />
<glyph unicode="&#xe3;" horiz-adv-x="1223" d="M102 355q0 196 199 285q149 66 457 66v72q0 64 -17 93t-63 41t-146 12q-48 0 -146 -24.5t-168 -56.5l-69 200q67 40 201.5 79.5t256.5 39.5q124 0 207 -18.5t142.5 -65.5t86.5 -128.5t27 -204.5v-761h-182q-34 0 -51.5 2.5t-34.5 12.5t-24 31.5t-7 57.5v8 q-122 -112 -297 -112q-167 0 -269.5 104t-102.5 267zM180 1472q35 100 113 163t188 63q58 0 103.5 -20.5t69.5 -44.5t55.5 -44.5t65.5 -20.5q74 0 155 111l126 -108q-36 -104 -111.5 -166t-186.5 -62q-54 0 -98.5 21t-69 45.5t-59 45.5t-72.5 21q-72 0 -154 -102zM424 357 q0 -80 43.5 -121t113.5 -41q50 0 105 20.5t72 42.5v272q-57 0 -128.5 -12.5t-106.5 -28.5q-45 -17 -72 -46t-27 -86z" />
<glyph unicode="&#xe4;" horiz-adv-x="1223" d="M102 355q0 196 199 285q149 66 457 66v72q0 64 -17 93t-63 41t-146 12q-48 0 -146 -24.5t-168 -56.5l-69 200q67 40 201.5 79.5t256.5 39.5q124 0 207 -18.5t142.5 -65.5t86.5 -128.5t27 -204.5v-761h-182q-34 0 -51.5 2.5t-34.5 12.5t-24 31.5t-7 57.5v8 q-122 -112 -297 -112q-167 0 -269.5 104t-102.5 267zM209 1477q0 75 54.5 130t130.5 55q80 0 122 -46.5t42 -121.5q0 -77 -53 -131t-130 -54q-75 0 -120.5 47t-45.5 121zM424 357q0 -80 43.5 -121t113.5 -41q50 0 105 20.5t72 42.5v272q-57 0 -128.5 -12.5t-106.5 -28.5 q-45 -17 -72 -46t-27 -86zM694 1477q0 75 54.5 130t130.5 55q80 0 122 -46.5t42 -121.5q0 -77 -53 -131t-130 -54q-75 0 -120.5 47t-45.5 121z" />
<glyph unicode="&#xe5;" horiz-adv-x="1223" d="M102 355q0 196 199 285q149 66 457 66v72q0 64 -17 93t-63 41t-146 12q-48 0 -146 -24.5t-168 -56.5l-69 200q67 40 201.5 79.5t256.5 39.5q124 0 207 -18.5t142.5 -65.5t86.5 -128.5t27 -204.5v-761h-182q-34 0 -51.5 2.5t-34.5 12.5t-24 31.5t-7 57.5v8 q-122 -112 -297 -112q-167 0 -269.5 104t-102.5 267zM284 1607q1 73 31.5 129t81 88t109.5 47.5t125 15.5q158 0 247.5 -74t88.5 -210q-1 -74 -29.5 -131t-77.5 -91t-109.5 -51t-128.5 -17q-161 0 -250.5 79t-87.5 215zM424 357q0 -80 43.5 -121t113.5 -41q50 0 105 20.5 t72 42.5v272q-57 0 -128.5 -12.5t-106.5 -28.5q-45 -17 -72 -46t-27 -86zM468 1606q0 -63 44 -102t113 -39q77 -1 118 29.5t41 104.5q0 65 -44.5 103t-114.5 39q-69 1 -113 -31t-44 -104z" />
<glyph unicode="&#xe6;" horiz-adv-x="1851" d="M102 330q0 104 57 183.5t156 123.5q81 36 201 52.5t235 16.5v61q0 87 -44 122t-153 35q-81 0 -180.5 -27t-145.5 -54l-69 200q35 20 89.5 43t164.5 49.5t214 26.5q124 0 205.5 -26.5t127.5 -88.5q138 108 341 109q92 1 170.5 -23t142.5 -74.5t101.5 -140t38.5 -209.5 q0 -144 -11 -214h-675q9 -141 89 -210t216 -69q65 0 157.5 17.5t135.5 41.5l51 -177q-59 -48 -177 -81t-246 -33q-275 0 -416 175q-153 -175 -403 -175q-161 0 -267 90.5t-106 255.5zM422 347q0 -75 44 -113.5t115 -38.5q63 0 126 31.5t94 71.5q-40 102 -44 232 q-138 0 -229 -41q-24 -10 -37.5 -17.5t-32 -23.5t-27.5 -41.5t-9 -59.5zM1074 668h390q8 131 -32 198.5t-141 67.5q-92 0 -146.5 -61t-70.5 -205z" />
<glyph unicode="&#xe7;" horiz-adv-x="1048" d="M95 556q0 102 21.5 191.5t67.5 165t112.5 129.5t160 84t207.5 30q101 0 183 -17.5t113 -40.5l-39 -241q-83 44 -225 44q-52 0 -100.5 -16.5t-91.5 -50t-70 -95.5t-29 -144q-5 -177 73 -268.5t206 -91.5q75 0 143.5 13.5t104.5 33.5l45 -185q-90 -86 -262 -107 q39 -81 34 -211q-4 -122 -75.5 -182.5t-179.5 -60.5q-47 0 -104.5 8.5t-75.5 19.5l20 165q22 -14 77 -14q51 0 84.5 38t36.5 112q5 79 -13 127q-206 33 -315 185.5t-109 378.5z" />
<glyph unicode="&#xe8;" horiz-adv-x="1190" d="M95 574q0 167 62.5 297.5t187 207t295.5 77.5q92 1 170.5 -23t142.5 -74.5t101.5 -140t38.5 -209.5q0 -144 -11 -214h-675q9 -141 89 -210t216 -69q65 0 157.5 17.5t135.5 41.5l51 -177q-59 -48 -177 -81t-246 -33q-259 0 -398.5 155t-139.5 435zM199 1634l215 174 q61 -104 156 -220t185 -199l-149 -137q-78 35 -219.5 159.5t-187.5 222.5zM413 668h390q8 131 -32 198.5t-141 67.5q-92 0 -146.5 -61t-70.5 -205z" />
<glyph unicode="&#xe9;" horiz-adv-x="1190" d="M95 574q0 167 62.5 297.5t187 207t295.5 77.5q92 1 170.5 -23t142.5 -74.5t101.5 -140t38.5 -209.5q0 -144 -11 -214h-675q9 -141 89 -210t216 -69q65 0 157.5 17.5t135.5 41.5l51 -177q-59 -48 -177 -81t-246 -33q-259 0 -398.5 155t-139.5 435zM413 668h390 q8 131 -32 198.5t-141 67.5q-92 0 -146.5 -61t-70.5 -205zM501 1389q197 185 341 419l214 -174q-40 -93 -186 -221.5t-220 -160.5z" />
<glyph unicode="&#xea;" horiz-adv-x="1190" d="M95 574q0 167 62.5 297.5t187 207t295.5 77.5q92 1 170.5 -23t142.5 -74.5t101.5 -140t38.5 -209.5q0 -144 -11 -214h-675q9 -141 89 -210t216 -69q65 0 157.5 17.5t135.5 41.5l51 -177q-59 -48 -177 -81t-246 -33q-259 0 -398.5 155t-139.5 435zM239 1326l286 373h223 l283 -372l-161 -90l-233 246l-242 -246zM413 668h390q8 131 -32 198.5t-141 67.5q-92 0 -146.5 -61t-70.5 -205z" />
<glyph unicode="&#xeb;" horiz-adv-x="1190" d="M95 574q0 167 62.5 297.5t187 207t295.5 77.5q92 1 170.5 -23t142.5 -74.5t101.5 -140t38.5 -209.5q0 -144 -11 -214h-675q9 -141 89 -210t216 -69q65 0 157.5 17.5t135.5 41.5l51 -177q-59 -48 -177 -81t-246 -33q-259 0 -398.5 155t-139.5 435zM217 1478q0 75 54.5 130 t130.5 55q80 0 122 -46.5t42 -121.5q0 -77 -53 -131t-130 -54q-75 0 -120.5 47t-45.5 121zM413 668h390q8 131 -32 198.5t-141 67.5q-92 0 -146.5 -61t-70.5 -205zM702 1478q0 75 54.5 130t130.5 55q80 0 122 -46.5t42 -121.5q0 -77 -53 -131t-130 -54q-75 0 -120.5 47 t-45.5 121z" />
<glyph unicode="&#xec;" horiz-adv-x="660" d="M-105 1633l215 174q61 -104 156 -220t185 -199l-149 -137q-78 35 -219.5 159.5t-187.5 222.5zM174 0v1140h312v-1140h-312z" />
<glyph unicode="&#xed;" horiz-adv-x="660" d="M174 0v1140h312v-1140h-312zM197 1388q197 185 341 419l214 -174q-40 -93 -186 -221.5t-220 -160.5z" />
<glyph unicode="&#xee;" horiz-adv-x="660" d="M-65 1325l286 373h223l283 -372l-161 -90l-233 246l-242 -246zM174 0v1140h312v-1140h-312z" />
<glyph unicode="&#xef;" horiz-adv-x="660" d="M-75 1477q0 75 54.5 130t130.5 55q80 0 122 -46.5t42 -121.5q0 -77 -53 -131t-130 -54q-75 0 -120.5 47t-45.5 121zM174 0v1140h312v-1140h-312zM386 1477q0 75 54.5 130t130.5 55q80 0 122 -46.5t42 -121.5q0 -77 -53 -131t-130 -54q-75 0 -120.5 47t-45.5 121z" />
<glyph unicode="&#xf0;" horiz-adv-x="1294" d="M95 550q0 276 139.5 437.5t389.5 161.5q110 0 191 -53q-30 92 -95 176t-152 148l-117 -158l-149 99l122 157q-98 61 -204 93l53 176q176 -52 276 -108l125 173l152 -100q-66 -87 -123 -158q233 -132 372.5 -390.5t139.5 -552.5q0 -163 -43.5 -293.5t-120 -213 t-178 -126.5t-219.5 -45q-254 -1 -406.5 158t-152.5 419zM419 547q0 -168 63.5 -256.5t177.5 -88.5q101 0 166.5 98.5t65.5 273.5q0 166 -6 242q-27 46 -87 81t-139 35q-113 0 -177 -101t-64 -284z" />
<glyph unicode="&#xf1;" horiz-adv-x="1352" d="M174 0v1140h283l6 -122q69 52 172 95t199 46q185 6 270.5 -96t85.5 -348v-715h-312v648q0 143 -35.5 197t-132.5 51q-50 -1 -113 -23t-111 -64v-809h-312zM315 1472q35 100 113 163t188 63q48 0 86 -13.5t62.5 -32.5t46 -38t46.5 -32.5t53 -13.5q74 0 155 111l126 -108 q-36 -104 -111.5 -166t-186.5 -62q-54 0 -98.5 21t-69 45.5t-59 45.5t-72.5 21q-72 0 -154 -102z" />
<glyph unicode="&#xf2;" horiz-adv-x="1302" d="M96 594q2 135 45 242t118.5 176.5t178 106.5t224.5 37q146 0 254.5 -49t171 -135t91.5 -192.5t27 -233.5q-4 -267 -159.5 -414.5t-405.5 -147.5q-146 0 -254.5 49t-171 135t-92 192.5t-27.5 233.5zM225 1633l215 174q61 -104 156 -220t185 -199l-149 -137 q-78 35 -219.5 159.5t-187.5 222.5zM419 586q0 -105 22.5 -188t75.5 -138t131 -56q235 -3 235 357q0 75 -13 140t-39 118t-71.5 83.5t-104.5 31.5q-121 1 -178.5 -88.5t-57.5 -259.5z" />
<glyph unicode="&#xf3;" horiz-adv-x="1302" d="M96 594q2 135 45 242t118.5 176.5t178 106.5t224.5 37q146 0 254.5 -49t171 -135t91.5 -192.5t27 -233.5q-4 -267 -159.5 -414.5t-405.5 -147.5q-146 0 -254.5 49t-171 135t-92 192.5t-27.5 233.5zM419 586q0 -105 22.5 -188t75.5 -138t131 -56q235 -3 235 357 q0 75 -13 140t-39 118t-71.5 83.5t-104.5 31.5q-121 1 -178.5 -88.5t-57.5 -259.5zM527 1388q197 185 341 419l214 -174q-40 -93 -186 -221.5t-220 -160.5z" />
<glyph unicode="&#xf4;" horiz-adv-x="1302" d="M96 594q2 135 45 242t118.5 176.5t178 106.5t224.5 37q146 0 254.5 -49t171 -135t91.5 -192.5t27 -233.5q-4 -267 -159.5 -414.5t-405.5 -147.5q-146 0 -254.5 49t-171 135t-92 192.5t-27.5 233.5zM265 1325l286 373h223l283 -372l-161 -90l-233 246l-242 -246zM419 586 q0 -105 22.5 -188t75.5 -138t131 -56q235 -3 235 357q0 75 -13 140t-39 118t-71.5 83.5t-104.5 31.5q-121 1 -178.5 -88.5t-57.5 -259.5z" />
<glyph unicode="&#xf5;" horiz-adv-x="1302" d="M96 594q2 135 45 242t118.5 176.5t178 106.5t224.5 37q146 0 254.5 -49t171 -135t91.5 -192.5t27 -233.5q-4 -267 -159.5 -414.5t-405.5 -147.5q-146 0 -254.5 49t-171 135t-92 192.5t-27.5 233.5zM214 1472q35 100 113 163t188 63q58 0 103.5 -20.5t69.5 -44.5 t55.5 -44.5t65.5 -20.5q74 0 155 111l126 -108q-36 -104 -111.5 -166t-186.5 -62q-54 0 -98.5 21t-69 45.5t-59 45.5t-72.5 21q-72 0 -154 -102zM419 586q0 -105 22.5 -188t75.5 -138t131 -56q235 -3 235 357q0 75 -13 140t-39 118t-71.5 83.5t-104.5 31.5 q-121 1 -178.5 -88.5t-57.5 -259.5z" />
<glyph unicode="&#xf6;" horiz-adv-x="1302" d="M96 594q2 135 45 242t118.5 176.5t178 106.5t224.5 37q146 0 254.5 -49t171 -135t91.5 -192.5t27 -233.5q-4 -267 -159.5 -414.5t-405.5 -147.5q-146 0 -254.5 49t-171 135t-92 192.5t-27.5 233.5zM243 1477q0 75 54.5 130t130.5 55q80 0 122 -46.5t42 -121.5 q0 -77 -53 -131t-130 -54q-75 0 -120.5 47t-45.5 121zM419 586q0 -105 22.5 -188t75.5 -138t131 -56q235 -3 235 357q0 75 -13 140t-39 118t-71.5 83.5t-104.5 31.5q-121 1 -178.5 -88.5t-57.5 -259.5zM728 1477q0 75 54.5 130t130.5 55q80 0 122 -46.5t42 -121.5 q0 -77 -53 -131t-130 -54q-75 0 -120.5 47t-45.5 121z" />
<glyph unicode="&#xf7;" horiz-adv-x="1403" d="M203 655v234h997v-234h-997zM523 325q0 83 61.5 144.5t144.5 61.5q85 0 134 -52.5t49 -134.5q0 -85 -60 -146t-144 -61q-80 0 -132.5 53t-52.5 135zM527 1213q0 83 61 144.5t144 61.5q86 0 135 -52.5t49 -134.5q0 -85 -60 -146t-144 -61q-80 0 -132.5 53t-52.5 135z" />
<glyph unicode="&#xf8;" horiz-adv-x="1302" d="M96 594q2 135 45 242t118.5 176.5t178 106.5t224.5 37q59 0 122 -10l79 221l125 -32l-80 -225q80 -34 139 -92t93.5 -133t51 -159.5t14.5 -179.5q-4 -267 -159.5 -414.5t-405.5 -147.5q-67 0 -128 11l-76 -215l-125 32l78 219q-153 68 -224.5 217.5t-69.5 345.5zM419 586 q0 -184 66 -287l222 628q-28 7 -52 7q-121 1 -178.5 -88.5t-57.5 -259.5zM590 213q32 -9 58 -9q235 -3 235 357q0 183 -69 285z" />
<glyph unicode="&#xf9;" horiz-adv-x="1326" d="M162 474v666h312v-663q0 -81 10 -132t33.5 -77.5t53 -35.5t78.5 -9q50 0 106 21t85 44v852h312v-1156h-206q-40 0 -58 11.5t-18 46.5v51q-65 -46 -158.5 -77.5t-174.5 -31.5q-80 0 -141 15.5t-101.5 47t-67 72t-40.5 99t-19.5 118t-5.5 138.5zM239 1633l215 174 q61 -104 156 -220t185 -199l-149 -137q-78 35 -219.5 159.5t-187.5 222.5z" />
<glyph unicode="&#xfa;" horiz-adv-x="1326" d="M162 474v666h312v-663q0 -81 10 -132t33.5 -77.5t53 -35.5t78.5 -9q50 0 106 21t85 44v852h312v-1156h-206q-40 0 -58 11.5t-18 46.5v51q-65 -46 -158.5 -77.5t-174.5 -31.5q-80 0 -141 15.5t-101.5 47t-67 72t-40.5 99t-19.5 118t-5.5 138.5zM541 1388q197 185 341 419 l214 -174q-40 -93 -186 -221.5t-220 -160.5z" />
<glyph unicode="&#xfb;" horiz-adv-x="1326" d="M162 474v666h312v-663q0 -81 10 -132t33.5 -77.5t53 -35.5t78.5 -9q50 0 106 21t85 44v852h312v-1156h-206q-40 0 -58 11.5t-18 46.5v51q-65 -46 -158.5 -77.5t-174.5 -31.5q-80 0 -141 15.5t-101.5 47t-67 72t-40.5 99t-19.5 118t-5.5 138.5zM279 1325l286 373h223 l283 -372l-161 -90l-233 246l-242 -246z" />
<glyph unicode="&#xfc;" horiz-adv-x="1326" d="M162 474v666h312v-663q0 -81 10 -132t33.5 -77.5t53 -35.5t78.5 -9q50 0 106 21t85 44v852h312v-1156h-206q-40 0 -58 11.5t-18 46.5v51q-65 -46 -158.5 -77.5t-174.5 -31.5q-80 0 -141 15.5t-101.5 47t-67 72t-40.5 99t-19.5 118t-5.5 138.5zM257 1477q0 75 54.5 130 t130.5 55q80 0 122 -46.5t42 -121.5q0 -77 -53 -131t-130 -54q-75 0 -120.5 47t-45.5 121zM742 1477q0 75 54.5 130t130.5 55q80 0 122 -46.5t42 -121.5q0 -77 -53 -131t-130 -54q-75 0 -120.5 47t-45.5 121z" />
<glyph unicode="&#xfd;" horiz-adv-x="1188" d="M17 1140h338l173 -609l83 -330l77 330l139 609h335l-355 -1170q-60 -196 -160 -308t-223 -148q-26 -8 -76.5 -14.5t-75.5 -6.5q-26 0 -85 6.5t-67 12.5v253q18 -6 57.5 -13t55.5 -7q25 0 39 0.5t40.5 3.5t43.5 9.5t41 18t42 31t37 45t34.5 63.5t27.5 84h-134zM479 1388 q197 185 341 419l214 -174q-40 -93 -186 -221.5t-220 -160.5z" />
<glyph unicode="&#xfe;" horiz-adv-x="1340" d="M168 -507v2168h312v-437l-8 -188q125 120 319 120q93 0 173.5 -33.5t144 -99t100 -171.5t36.5 -240q0 -284 -165 -459.5t-431 -175.5q-82 0 -168 11l5 -157v-338h-318zM480 232q36 -39 176 -39q114 0 187.5 105t74.5 289q1 96 -14.5 162.5t-46 104t-70 53.5t-92.5 16 q-62 0 -119.5 -20t-95.5 -51v-620z" />
<glyph unicode="&#xff;" horiz-adv-x="1188" d="M17 1140h338l173 -609l83 -330l77 330l139 609h335l-355 -1170q-60 -196 -160 -308t-223 -148q-26 -8 -76.5 -14.5t-75.5 -6.5q-26 0 -85 6.5t-67 12.5v253q18 -6 57.5 -13t55.5 -7q25 0 39 0.5t40.5 3.5t43.5 9.5t41 18t42 31t37 45t34.5 63.5t27.5 84h-134zM195 1477 q0 75 54.5 130t130.5 55q80 0 122 -46.5t42 -121.5q0 -77 -53 -131t-130 -54q-75 0 -120.5 47t-45.5 121zM680 1477q0 75 54.5 130t130.5 55q80 0 122 -46.5t42 -121.5q0 -77 -53 -131t-130 -54q-75 0 -120.5 47t-45.5 121z" />
<glyph unicode="&#x152;" horiz-adv-x="2133" d="M106 769q4 184 59.5 330.5t151.5 241.5t224 145t279 52q143 0 234 -47v31h928v-244h-610v-374h450v-241h-450v-412h675v-251h-993v41q-101 -55 -264 -57q-213 -1 -371 100.5t-238 279t-75 405.5zM431 758q0 -246 97.5 -391.5t275.5 -145.5q171 0 250 98v871 q-93 106 -234 106q-60 0 -113 -14.5t-105 -52.5t-88.5 -97.5t-59.5 -155t-23 -218.5z" />
<glyph unicode="&#x153;" horiz-adv-x="1962" d="M96 594q4 268 157 415t403 147q246 0 379 -143q143 142 377 143q92 1 171 -23t143.5 -74.5t101.5 -140t37 -209.5q0 -144 -11 -214h-675q9 -141 89 -210t216 -69q65 0 157.5 17.5t135.5 41.5l51 -177q-59 -48 -177 -81t-246 -33q-247 0 -382 141q-144 -141 -388 -141 q-117 0 -210.5 32.5t-155 88.5t-101.5 134.5t-57 166t-15 188.5zM419 586q0 -78 12.5 -144t37.5 -120.5t69.5 -85.5t103.5 -32q120 -1 175.5 89.5t55.5 267.5q0 76 -12.5 140.5t-38 117.5t-70 83.5t-103.5 31.5q-120 1 -175 -87.5t-55 -260.5zM1185 668h390q8 131 -32 198.5 t-141 67.5q-92 0 -146.5 -61t-70.5 -205z" />
<glyph unicode="&#x178;" horiz-adv-x="1241" d="M-50 1522h350l280 -590l44 -114l38 114l288 590h341l-511 -989v-533h-319v535zM200 1778q0 76 54.5 129t132.5 53q81 0 124.5 -44.5t43.5 -119.5q0 -78 -53 -130t-133 -52q-77 0 -123 45t-46 119zM724 1778q0 76 54.5 129t132.5 53q81 0 124 -44.5t43 -119.5 q0 -78 -53 -130t-133 -52q-76 0 -122 45t-46 119z" />
<glyph unicode="&#x2c6;" horiz-adv-x="878" d="M43 1326l286 373h223l283 -372l-161 -90l-233 246l-242 -246z" />
<glyph unicode="&#x2dc;" horiz-adv-x="937" d="M32 1473q35 100 113 163t188 63q58 0 103.5 -20.5t69.5 -44.5t55.5 -44.5t65.5 -20.5q74 0 155 111l126 -108q-36 -104 -111.5 -166t-186.5 -62q-54 0 -98.5 21t-69 45.5t-59 45.5t-72.5 21q-72 0 -154 -102z" />
<glyph unicode="&#x2000;" horiz-adv-x="990" />
<glyph unicode="&#x2001;" horiz-adv-x="1980" />
<glyph unicode="&#x2002;" horiz-adv-x="990" />
<glyph unicode="&#x2003;" horiz-adv-x="1980" />
<glyph unicode="&#x2004;" horiz-adv-x="660" />
<glyph unicode="&#x2005;" horiz-adv-x="495" />
<glyph unicode="&#x2006;" horiz-adv-x="330" />
<glyph unicode="&#x2007;" horiz-adv-x="330" />
<glyph unicode="&#x2008;" horiz-adv-x="247" />
<glyph unicode="&#x2009;" horiz-adv-x="396" />
<glyph unicode="&#x200a;" horiz-adv-x="110" />
<glyph unicode="&#x2010;" horiz-adv-x="1360" d="M255 644v245h850v-245h-850z" />
<glyph unicode="&#x2011;" horiz-adv-x="1360" d="M255 644v245h850v-245h-850z" />
<glyph unicode="&#x2012;" horiz-adv-x="1360" d="M255 644v245h850v-245h-850z" />
<glyph unicode="&#x2013;" horiz-adv-x="1702" d="M245 644v245h1212v-245h-1212z" />
<glyph unicode="&#x2014;" horiz-adv-x="2413" d="M245 644v245h1923v-245h-1923z" />
<glyph unicode="&#x2018;" horiz-adv-x="560" d="M94 1286q0 85 22 164t56.5 135t65.5 92.5t60 58.5l130 -83v-28q-31 -36 -50.5 -115t-19.5 -152q0 -79 28.5 -142.5t61.5 -80.5v-71l-169 -124q-78 29 -131.5 121.5t-53.5 224.5z" />
<glyph unicode="&#x2019;" horiz-adv-x="560" d="M94 1541v71l169 124q78 -28 131.5 -121t53.5 -225q0 -85 -22 -163.5t-56.5 -134.5t-65.5 -93t-60 -59l-130 83v28q31 36 50 115t19 153q0 78 -28 141t-61 81z" />
<glyph unicode="&#x201a;" horiz-adv-x="560" d="M94 68v71l169 124q78 -28 131.5 -121t53.5 -225q0 -85 -22 -163.5t-56.5 -134.5t-65.5 -93t-60 -59l-130 83v28q31 36 50 115t19 153q0 78 -28 141t-61 81z" />
<glyph unicode="&#x201c;" horiz-adv-x="1108" d="M94 1286q0 85 22 164t56.5 135t65.5 92.5t60 58.5l130 -83v-28q-31 -36 -50.5 -115t-19.5 -152q0 -79 28.5 -142.5t61.5 -80.5v-71l-169 -124q-78 29 -131.5 121.5t-53.5 224.5zM642 1286q0 85 22 164t56.5 135t65.5 92.5t60 58.5l130 -83v-28q-31 -36 -50.5 -115 t-19.5 -152q0 -79 28.5 -142.5t61.5 -80.5v-71l-169 -124q-78 29 -131.5 121.5t-53.5 224.5z" />
<glyph unicode="&#x201d;" horiz-adv-x="1108" d="M94 1541v71l169 124q78 -28 131.5 -121t53.5 -225q0 -85 -22 -163.5t-56.5 -134.5t-65.5 -93t-60 -59l-130 83v28q31 36 50 115t19 153q0 78 -28 141t-61 81zM642 1541v71l169 124q78 -28 131.5 -121t53.5 -225q0 -85 -22 -163.5t-56.5 -134.5t-65.5 -93t-60 -59l-130 83 v28q31 36 50 115t19 153q0 78 -28 141t-61 81z" />
<glyph unicode="&#x201e;" horiz-adv-x="1108" d="M94 80v71l169 124q78 -28 131.5 -121t53.5 -225q0 -85 -22 -163.5t-56.5 -134.5t-65.5 -93t-60 -59l-130 83v28q31 36 50 115t19 153q0 78 -28 141t-61 81zM642 80v71l169 124q78 -28 131.5 -121t53.5 -225q0 -85 -22 -163.5t-56.5 -134.5t-65.5 -93t-60 -59l-130 83v28 q31 36 50 115t19 153q0 78 -28 141t-61 81z" />
<glyph unicode="&#x2022;" horiz-adv-x="905" d="M187 725q2 110 84.5 190t192.5 80q111 0 183.5 -73t70.5 -184q-2 -109 -83.5 -190t-191.5 -81q-111 0 -184.5 74.5t-71.5 183.5z" />
<glyph unicode="&#x2026;" horiz-adv-x="1903" d="M126 171q-1 85 59.5 148.5t144.5 63.5q85 0 134.5 -54.5t50.5 -137.5q2 -87 -58 -150t-144 -63q-80 0 -133 55t-54 138zM757 171q-1 85 59.5 148.5t144.5 63.5q85 0 134.5 -54.5t50.5 -137.5q2 -87 -58 -150t-144 -63q-80 0 -133 55t-54 138zM1388 171q-1 85 59.5 148.5 t144.5 63.5q85 0 134.5 -54.5t50.5 -137.5q2 -87 -58 -150t-144 -63q-80 0 -133 55t-54 138z" />
<glyph unicode="&#x202f;" horiz-adv-x="396" />
<glyph unicode="&#x2039;" horiz-adv-x="1214" d="M235 492v243l656 422l75 -216l-431 -327l431 -324l-75 -214z" />
<glyph unicode="&#x203a;" horiz-adv-x="1214" d="M238 290l431 324l-431 327l75 216l656 -422v-243l-656 -416z" />
<glyph unicode="&#x205f;" horiz-adv-x="495" />
<glyph unicode="&#x20ac;" horiz-adv-x="1504" d="M92 472v192h189q-1 18 -1 56q0 71 6 137h-157v192h194q68 231 235 355.5t411 133.5q100 4 170 -6t136.5 -31t78.5 -24l-53 -243q-60 35 -123.5 51t-179.5 17q-125 0 -215 -62.5t-134 -190.5h497v-192h-532q-2 -22 -2 -68q0 -65 3 -125h482v-192h-452q36 -132 120 -201.5 t230 -69.5q96 0 184.5 23.5t140.5 59.5l60 -234q-25 -3 -64 -17t-77 -27t-115.5 -23.5t-175.5 -10.5q-264 0 -427 130t-216 370h-213z" />
<glyph unicode="&#x2122;" horiz-adv-x="2228" d="M148 1543h724v-192l-256 1v-585h-219v585l-248 -1zM977 767l43 776h354l114 -341l33 -136l26 136l107 341h337l68 -776h-216l-31 487l-6 121l-44 -153l-168 -458h-148l-182 458l-51 154l-3 -122l-17 -487h-216z" />
<glyph unicode="&#x25fc;" horiz-adv-x="1140" d="M0 0v1140h1140v-1140h-1140z" />
</font>
</defs>
</svg>
